<?xml version="1.0" standalone="no"?>
<svg xmlns="http://www.w3.org/2000/svg">
<metadata>
	Foundry: Ascender Corporation
	Foundry URL: http://www.ascendercorp.com/
</metadata>
<defs>
	<font id="DroidSansMono" horiz-adv-x="1229" >
		<font-face units-per-em="2048" ascent="1638" descent="-410"/>
		<missing-glyph horiz-adv-x="500"/>
		<glyph unicode=" "/>
		<glyph unicode="!" d="M676 414h-121l-51 1048h223zM614 250q127 0 127 -139q0 -140 -127 -140t-127 140q0 139 127 139z"/>
		<glyph unicode="&#x22;" d="M944 1462l-41 -528h-155l-41 528h237zM522 1462l-41 -528h-155l-41 528h237z"/>
		<glyph unicode="#" d="M936 893l-64 -328h240v-137h-266l-82 -428h-148l84 428h-290l-82 -428h-144l78 428h-217v137h244l65 328h-233v137h258l82 432h147l-82 -432h293l84 432h144l-84 -432h221v-137h-248zM436 565h291l64 328h-291z"/>
		<glyph unicode="$" d="M684 111v-230h-137v221q-228 0 -365 70v172q196 -92 365 -92v434q-193 64 -270.5 145.5t-77.5 219.5q0 131 92 217t256 106v180h137v-176q187 -9 336 -78l-66 -145q-140 62 -270 72v-422q199 -68 279.5 -148.5t80.5 -210.5q0 -280 -360 -335zM547 854v369 q-172 -29 -172 -174q0 -78 40.5 -121t131.5 -74zM684 635v-373q184 28 184 184q0 127 -184 189z"/>
		<glyph unicode="%" d="M1057 1462l-729 -1462h-158l729 1462h158zM291 784q-131 0 -211 94.5t-80 254.5q0 164 79 255t216 91q129 0 210 -93t81 -253q0 -162 -78.5 -255.5t-216.5 -93.5zM293 903q139 0 139 230q0 225 -139 225q-141 0 -141 -225q0 -230 141 -230zM934 -18q-130 0 -210.5 94.5 t-80.5 253.5q0 164 79 255t216 91q129 0 210 -93t81 -253q0 -161 -78.5 -254.5t-216.5 -93.5zM936 100q139 0 139 230q0 225 -139 225q-141 0 -141 -225q0 -230 141 -230z"/>
		<glyph unicode="&#x26;" d="M602 776l281 -348q71 121 104 266h184q-53 -234 -178 -403l234 -291h-217l-131 166q-174 -186 -412 -186q-189 0 -297.5 107t-108.5 294q0 131 63.5 228.5t235.5 199.5q-163 192 -163 356q0 148 95.5 234t274.5 86q168 0 260.5 -85.5t92.5 -234.5q0 -203 -318 -389z M508 897q134 79 183.5 138.5t49.5 133.5t-49.5 120t-130.5 46q-87 0 -136.5 -44.5t-49.5 -125.5q0 -118 133 -268zM778 287l-323 401q-203 -123 -203 -301q0 -105 67 -175.5t160 -70.5q160 0 299 146z"/>
		<glyph unicode="'" d="M733 1462l-41 -528h-155l-41 528h237z"/>
		<glyph unicode="(" d="M739 1462h193q-449 -376 -449 -893q0 -521 447 -893h-191q-444 353 -444 891q0 532 444 895z"/>
		<glyph unicode=")" d="M489 -324h-190q446 371 446 893q0 518 -448 893h192q445 -361 445 -895q0 -540 -445 -891z"/>
		<glyph unicode="*" d="M715 1556l-43 -393l397 111l27 -193l-379 -28l246 -326l-179 -96l-176 358l-157 -358l-185 96l242 326l-375 28l29 193l391 -111l-43 393h205z"/>
		<glyph unicode="+" d="M539 647h-387v150h387v389h149v-389h387v-150h-387v-385h-149v385z"/>
		<glyph unicode="," d="M770 262l16 -24q-57 -224 -194 -527h-152q76 323 111 551h219z"/>
		<glyph unicode="-" d="M285 465v168h659v-168h-659z"/>
		<glyph unicode="." d="M614 301q152 0 152 -166t-152 -166q-151 0 -151 166t151 166z"/>
		<glyph unicode="/" d="M1016 1462l-627 -1462h-178l627 1462h178z"/>
		<glyph unicode="0" d="M612 -20q-229 0 -347 193.5t-118 559.5q0 752 465 752q232 0 350.5 -193.5t118.5 -558.5q0 -753 -469 -753zM612 135q147 0 216 140.5t69 457.5q0 315 -69 455.5t-216 140.5q-145 0 -212.5 -139.5t-67.5 -456.5q0 -318 67.5 -458t212.5 -140z"/>
		<glyph unicode="1" d="M758 0h-176v913q0 122 8 361q-39 -43 -121 -113l-147 -121l-97 123l383 299h150v-1462z"/>
		<glyph unicode="2" d="M1069 0h-911v156l350 381q195 213 257 317.5t62 230.5q0 113 -63.5 178.5t-171.5 65.5q-160 0 -318 -137l-102 119q192 172 422 172q194 0 306 -106t112 -285q0 -119 -59 -244t-291 -375l-281 -299v-8h688v-166z"/>
		<glyph unicode="3" d="M694 770v-6q361 -47 361 -348q0 -203 -138 -319.5t-399 -116.5q-242 0 -387 79v170q184 -96 383 -96q354 0 354 289q0 258 -381 258h-133v151h133q160 0 248 76t88 201q0 102 -68 161.5t-182 59.5q-178 0 -344 -121l-92 125q187 150 436 150q206 0 321.5 -99t115.5 -264 q0 -138 -82 -231t-234 -119z"/>
		<glyph unicode="4" d="M1126 328h-213v-328h-176v328h-676v159l664 983h188v-976h213v-166zM737 494v356q0 176 13 432h-9q-36 -102 -90 -180l-411 -608h497z"/>
		<glyph unicode="5" d="M172 59v172q144 -96 360 -96q336 0 336 314q0 294 -344 294q-89 0 -231 -26l-90 57l55 688h690v-166h-532l-39 -419q107 20 209 20q210 0 339.5 -114.5t129.5 -313.5q0 -234 -138 -361.5t-389 -127.5q-224 0 -356 79z"/>
		<glyph unicode="6" d="M965 1464v-155q-71 24 -166 24q-224 0 -336.5 -141t-122.5 -447h12q95 170 307 170q195 0 305.5 -119t110.5 -325q0 -228 -120.5 -359.5t-323.5 -131.5q-218 0 -347.5 168.5t-129.5 476.5q0 858 639 858q104 0 172 -19zM899 471q0 145 -68.5 223t-195.5 78t-213 -81 t-86 -185q0 -152 81 -262.5t212 -110.5q127 0 198.5 88t71.5 250z"/>
		<glyph unicode="7" d="M334 0l563 1296h-754v166h940v-145l-555 -1317h-194z"/>
		<glyph unicode="8" d="M764 774q309 -160 309 -393q0 -181 -126 -291t-333 -110q-216 0 -337 103.5t-121 289.5q0 257 282 393q-235 146 -235 369q0 161 116.5 255.5t294.5 94.5q184 0 298 -95t114 -257q0 -230 -262 -359zM616 848q232 103 232 278q0 101 -63 154t-173 53q-106 0 -168.5 -53 t-62.5 -154q0 -90 49.5 -152.5t185.5 -125.5zM588 696q-254 -121 -254 -325q0 -240 276 -240q136 0 210.5 65.5t74.5 182.5q0 90 -63 159.5t-214 143.5z"/>
		<glyph unicode="9" d="M264 -2v156q67 -25 166 -25q224 0 336.5 141t122.5 447h-12q-96 -170 -308 -170q-194 0 -304.5 118t-110.5 326q0 228 120.5 360t323.5 132q220 0 348.5 -171t128.5 -474q0 -858 -639 -858q-105 0 -172 18zM330 991q0 -145 68.5 -223t195.5 -78t213 81.5t86 184.5 q0 151 -80 262t-213 111q-128 0 -199 -87t-71 -251z"/>
		<glyph unicode=":" d="M614 1126q127 0 127 -139t-127 -139t-127 139t127 139zM614 250q127 0 127 -139q0 -140 -127 -140t-127 140q0 139 127 139z"/>
		<glyph unicode=";" d="M621 1126q127 0 127 -139t-127 -139t-127 139t127 139zM709 238l14 -23q-51 -197 -176 -479h-137q62 255 100 502h199z"/>
		<glyph unicode="&#x3c;" d="M1075 221l-923 451v102l923 451v-160l-715 -342l715 -342v-160z"/>
		<glyph unicode="=" d="M152 442v150h923v-150h-923zM152 852v149h923v-149h-923z"/>
		<glyph unicode="&#x3e;" d="M152 381l714 342l-714 342v160l923 -451v-102l-923 -451v160z"/>
		<glyph unicode="?" d="M465 414v37q0 120 46 195t161 157q130 97 171.5 155t41.5 158q0 92 -74.5 149.5t-206.5 57.5q-174 0 -371 -90l-65 153q209 97 426 97q214 0 339.5 -97.5t125.5 -261.5q0 -133 -53.5 -216t-196.5 -191q-118 -87 -151 -141t-33 -144v-18h-160zM553 250q127 0 127 -139 q0 -140 -127 -140t-127 140q0 139 127 139z"/>
		<glyph unicode="@" d="M799 401h-4q-74 -180 -230 -180q-120 0 -190 104.5t-70 280.5q0 206 97 332.5t255 126.5q137 0 256 -47l-22 -416q-2 -38 -2 -69v-7q0 -176 72 -176q100 0 100 383q0 278 -111 436t-299 158q-226 0 -352.5 -192t-126.5 -527q0 -312 129.5 -482.5t368.5 -170.5 q181 0 346 78v-133q-158 -82 -352 -82q-298 0 -465.5 207t-167.5 577q0 397 167 628.5t455 231.5q248 0 396.5 -196t148.5 -535q0 -231 -64 -370.5t-178 -139.5q-128 0 -157 180zM752 915q-54 21 -103 21q-89 0 -136.5 -93.5t-47.5 -240.5q0 -252 127 -252q131 0 145 312z "/>
		<glyph unicode="A" d="M1004 0l-144 453h-491l-146 -453h-190l483 1468h195l485 -1468h-192zM807 618l-133 424q-39 124 -62 226q-20 -99 -46 -183l-144 -467h385z"/>
		<glyph unicode="B" d="M135 1462h440q274 0 397.5 -87.5t123.5 -282.5q0 -128 -78.5 -213t-212.5 -103v-10q332 -54 332 -342q0 -198 -127.5 -311t-347.5 -113h-527v1462zM322 842h284q156 0 227.5 55t71.5 182q0 120 -76.5 172t-242.5 52h-264v-461zM322 686v-528h307q311 0 311 274 q0 254 -324 254h-294z"/>
		<glyph unicode="C" d="M1124 201v-162q-146 -59 -358 -59q-309 0 -473 196t-164 557q0 346 179 548t489 202q220 0 383 -86l-78 -156q-154 78 -305 78q-215 0 -343 -158.5t-128 -429.5q0 -287 120 -437.5t351 -150.5q130 0 327 58z"/>
		<glyph unicode="D" d="M135 0v1462h342q317 0 493.5 -189t176.5 -528q0 -361 -183 -553t-528 -192h-301zM322 1303v-1143h96q532 0 532 579q0 564 -493 564h-135z"/>
		<glyph unicode="E" d="M1059 0h-842v1462h842v-164h-656v-452h617v-162h-617v-520h656v-164z"/>
		<glyph unicode="F" d="M430 0h-186v1462h841v-164h-655v-516h617v-164h-617v-618z"/>
		<glyph unicode="G" d="M672 772h422v-717q-195 -75 -420 -75q-262 0 -409.5 199.5t-147.5 553.5q0 351 162 550.5t446 199.5q192 0 346 -86l-72 -162q-146 84 -280 84q-192 0 -299 -155.5t-107 -432.5q0 -588 394 -588q97 0 202 29v436h-237v164z"/>
		<glyph unicode="H" d="M1094 0h-187v682h-585v-682h-187v1462h187v-616h585v616h187v-1462z"/>
		<glyph unicode="I" d="M1001 0h-776v123l295 20v1176l-295 20v123h776v-123l-294 -20v-1176l294 -20v-123z"/>
		<glyph unicode="J" d="M137 39v166q162 -62 309 -62q161 0 254 79.5t93 226.5v1013h186v-1011q0 -216 -140.5 -343.5t-377.5 -127.5q-217 0 -324 59z"/>
		<glyph unicode="K" d="M1198 0h-211l-450 698l-140 -114v-584h-186v1462h186v-731l121 168l453 563h209l-521 -637z"/>
		<glyph unicode="L" d="M233 0v1462h187v-1296h635v-166h-822z"/>
		<glyph unicode="M" d="M532 0l-278 1280h-8q18 -266 18 -406v-874h-151v1462h247l248 -1192h6l250 1192h252v-1462h-153v887q0 102 14 391h-8l-283 -1278h-154z"/>
		<glyph unicode="N" d="M1092 0h-215l-580 1210h-8q18 -277 18 -417v-793h-172v1462h213l578 -1204h6q-14 303 -14 404v800h174v-1462z"/>
		<glyph unicode="O" d="M616 -20q-532 0 -532 755q0 750 534 750q256 0 392.5 -195.5t136.5 -556.5t-138 -557t-393 -196zM616 143q173 0 253.5 145t80.5 445q0 303 -81.5 445.5t-250.5 142.5q-337 0 -337 -588q0 -590 335 -590z"/>
		<glyph unicode="P" d="M362 569v-569h-186v1462h404q514 0 514 -428q0 -219 -138.5 -342t-402.5 -123h-191zM362 727h170q198 0 283.5 72t85.5 225q0 279 -338 279h-201v-576z"/>
		<glyph unicode="Q" d="M862 39q85 -180 279 -311l-121 -142q-236 171 -328 400q-36 -6 -76 -6q-532 0 -532 755q0 750 534 750q256 0 392.5 -195.5t136.5 -556.5q0 -526 -285 -694zM616 143q173 0 253.5 145t80.5 445q0 303 -81.5 445.5t-250.5 142.5q-337 0 -337 -588q0 -590 335 -590z"/>
		<glyph unicode="R" d="M373 604v-604h-187v1462h357q520 0 520 -415q0 -287 -289 -392l397 -655h-219l-350 604h-229zM373 762h164q171 0 252 66t81 210q0 141 -80 203t-258 62h-159v-541z"/>
		<glyph unicode="S" d="M141 49v178q211 -86 414 -86q350 0 350 240q0 104 -70.5 160t-285.5 133q-208 73 -298.5 174.5t-90.5 263.5q0 174 128.5 272.5t352.5 98.5q229 0 416 -78l-64 -164q-193 78 -360 78q-293 0 -293 -209q0 -102 65.5 -164t270.5 -133q246 -88 328.5 -181.5t82.5 -240.5 q0 -192 -138.5 -301.5t-393.5 -109.5q-265 0 -414 69z"/>
		<glyph unicode="T" d="M707 0h-187v1298h-418v164h1022v-164h-417v-1298z"/>
		<glyph unicode="U" d="M1104 1464v-948q0 -260 -126 -398t-370 -138q-483 0 -483 540v942h186v-932q0 -387 307 -387q295 0 300 389v932h186z"/>
		<glyph unicode="V" d="M997 1462h199l-489 -1462h-187l-487 1462h196l295 -927q41 -127 88 -334q31 145 93 340z"/>
		<glyph unicode="W" d="M528 1008h177l145 -521q61 -219 72 -307q2 53 65 619l70 663h170l-187 -1462h-190l-168 580q-40 138 -66 282q-32 -173 -65 -284l-156 -578h-190l-203 1462h170l88 -663q23 -176 40 -378t17 -241q24 151 70 312z"/>
		<glyph unicode="X" d="M1174 0h-211l-355 635l-366 -635h-189l453 764l-422 698h199l331 -559l334 559h191l-422 -692z"/>
		<glyph unicode="Y" d="M612 723l381 739h201l-487 -893v-569h-187v559l-487 903h203z"/>
		<glyph unicode="Z" d="M1124 0h-1022v145l793 1151h-772v166h981v-145l-793 -1151h813v-166z"/>
		<glyph unicode="[" d="M940 -324h-528v1786h528v-149h-346v-1487h346v-150z"/>
		<glyph unicode="\" d="M389 1462l627 -1462h-178l-627 1462h178z"/>
		<glyph unicode="]" d="M289 -174h346v1487h-346v149h528v-1786h-528v150z"/>
		<glyph unicode="^" d="M111 549l424 924h102l481 -924h-162l-368 735l-318 -735h-159z"/>
		<glyph unicode="_" d="M1243 -324h-1259v140h1259v-140z"/>
		<glyph unicode="`" d="M811 1241h-121q-166 142 -272 307v21h219q86 -178 174 -301v-27z"/>
		<glyph unicode="a" d="M895 0l-37 152h-8q-77 -97 -158 -134.5t-209 -37.5q-163 0 -255.5 86t-92.5 241q0 332 510 348l203 7v69q0 236 -244 236q-147 0 -328 -82l-63 137q196 96 383 96q227 0 328.5 -87t101.5 -279v-752h-131zM846 537l-162 -7q-196 -8 -278 -61.5t-82 -163.5q0 -178 200 -178 q147 0 234.5 81.5t87.5 229.5v99z"/>
		<glyph unicode="b" d="M340 139h-12l-37 -139h-133v1556h182v-376q0 -81 -8 -226h8q107 164 322 164q201 0 315.5 -149.5t114.5 -417.5q0 -270 -115 -420.5t-315 -150.5q-207 0 -322 159zM340 551q0 -227 69.5 -323.5t221.5 -96.5q272 0 272 422q0 414 -274 414q-155 0 -222 -94t-67 -322z"/>
		<glyph unicode="c" d="M1061 1059l-62 -158q-150 57 -268 57q-371 0 -371 -413q0 -406 361 -406q157 0 321 62v-160q-134 -61 -329 -61q-257 0 -399 145.5t-142 417.5q0 281 145 428t408 147q178 0 336 -59z"/>
		<glyph unicode="d" d="M897 147h-8q-113 -167 -322 -167q-201 0 -315.5 149.5t-114.5 417.5q0 270 115 420.5t315 150.5q206 0 322 -160h12q-12 129 -12 162v436h182v-1556h-147zM889 506v41q0 227 -69.5 323.5t-221.5 96.5q-272 0 -272 -422q0 -414 274 -414q152 0 218.5 88.5t70.5 286.5z"/>
		<glyph unicode="e" d="M1096 514h-774q8 -375 344 -375q195 0 370 76v-160q-166 -75 -364 -75q-245 0 -392 149.5t-147 411.5q0 266 135.5 421.5t362.5 155.5q212 0 338.5 -134t126.5 -357v-113zM326 662h573q0 305 -272 305q-275 0 -301 -305z"/>
		<glyph unicode="f" d="M1044 961h-389v-961h-182v961h-317v110l317 33v96q0 193 90 280t299 87q129 0 252 -35l-41 -143q-104 28 -207 28q-123 0 -167 -50t-44 -165v-104h389v-137z"/>
		<glyph unicode="g" d="M1126 1098v-113l-196 -27q65 -85 65 -213q0 -161 -106.5 -256.5t-296.5 -95.5q-55 0 -86 6q-100 -56 -100 -133q0 -84 161 -84h187q174 0 266 -77t92 -220q0 -377 -565 -377q-218 0 -331.5 80.5t-113.5 225.5q0 212 240 270q-96 47 -96 154q0 112 133 192 q-89 37 -140 122.5t-51 186.5q0 182 106.5 280.5t303.5 98.5q86 0 150 -20h378zM594 518q223 0 223 230q0 239 -225 239t-225 -242q0 -227 227 -227zM692 18h-188q-230 0 -230 -198q0 -174 271 -174q395 0 395 223q0 88 -50 118.5t-198 30.5z"/>
		<glyph unicode="h" d="M887 0v707q0 260 -238 260q-307 0 -307 -398v-569h-182v1556h182v-462l-8 -144h10q103 168 336 168q389 0 389 -401v-717h-182z"/>
		<glyph unicode="i" d="M541 954l-269 21v123h451v-955l352 -20v-123h-878v123l344 20v811zM633 1550q106 0 106 -114q0 -58 -31.5 -86.5t-74.5 -28.5q-107 0 -107 115q0 114 107 114z"/>
		<glyph unicode="j" d="M135 -457v154q134 -39 289 -39q117 0 182.5 57t65.5 158v1081l-420 21v123h602v-1215q0 -180 -113 -277.5t-319 -97.5q-164 0 -287 35zM743 1550q107 0 107 -114q0 -115 -107 -115q-106 0 -106 115q0 114 106 114z"/>
		<glyph unicode="k" d="M383 553l135 152l395 393h222l-494 -475l522 -623h-213l-426 504l-129 -82v-422h-180v1556h180v-714l-16 -289h4z"/>
		<glyph unicode="l" d="M532 1413l-268 21v122h451v-1413l352 -20v-123h-879v123l344 20v1270z"/>
		<glyph unicode="m" d="M977 0v707q0 146 -26.5 203t-88.5 57q-87 0 -126.5 -83t-39.5 -278v-606h-161v707q0 260 -125 260q-84 0 -120 -79.5t-36 -318.5v-569h-162v1098h127l27 -148h10q67 168 201 168q163 0 213 -182h6q76 182 219 182q128 0 186 -92.5t58 -308.5v-717h-162z"/>
		<glyph unicode="n" d="M887 0v707q0 260 -238 260q-307 0 -307 -398v-569h-182v1098h147l27 -148h10q103 168 336 168q389 0 389 -401v-717h-182z"/>
		<glyph unicode="o" d="M610 -20q-216 0 -355.5 155.5t-139.5 415.5q0 263 135.5 415t365.5 152q218 0 357 -155t139 -412q0 -265 -137 -418t-365 -153zM614 131q310 0 310 420q0 416 -312 416q-309 0 -309 -416q0 -420 311 -420z"/>
		<glyph unicode="p" d="M340 139h-12q12 -129 12 -162v-469h-182v1590h147l27 -148h8q110 168 322 168q201 0 315.5 -149.5t114.5 -417.5q0 -270 -115 -420.5t-315 -150.5q-207 0 -322 159zM340 592v-41q0 -227 69.5 -323.5t221.5 -96.5q272 0 272 422q0 414 -274 414q-152 0 -218.5 -88 t-70.5 -287z"/>
		<glyph unicode="q" d="M889 950h8l27 148h147v-1590h-182v469q0 41 12 170h-12q-113 -167 -322 -167q-201 0 -315.5 149.5t-114.5 417.5q0 270 115 420.5t315 150.5q207 0 322 -168zM889 506v41q0 227 -69.5 323.5t-221.5 96.5q-272 0 -272 -422q0 -414 274 -414q152 0 218.5 88.5t70.5 286.5z "/>
		<glyph unicode="r" d="M1059 1073l-49 -166q-123 45 -224 45q-163 0 -251.5 -92.5t-88.5 -267.5v-592h-182v1098h148l22 -201h8q76 119 163 170t214 51q118 0 240 -45z"/>
		<glyph unicode="s" d="M203 49v166q193 -86 370 -86q275 0 275 162q0 57 -49 99t-226 106q-233 87 -293.5 159.5t-60.5 171.5q0 136 111.5 213.5t308.5 77.5q198 0 369 -74l-60 -149q-182 72 -319 72q-236 0 -236 -133q0 -61 50.5 -97.5t232.5 -101.5q211 -77 280.5 -151.5t69.5 -182.5 q0 -150 -117 -235.5t-331 -85.5q-248 0 -375 69z"/>
		<glyph unicode="t" d="M1020 150v-138q-130 -32 -252 -32q-362 0 -362 344v637h-267v94l267 49l77 287h105v-293h438v-137h-438v-637q0 -195 192 -195q93 0 240 21z"/>
		<glyph unicode="u" d="M922 0l-27 147h-10q-105 -167 -334 -167q-391 0 -391 401v717h182v-707q0 -260 236 -260q161 0 235 92.5t74 304.5v570h182v-1098h-147z"/>
		<glyph unicode="v" d="M498 0l-416 1098h188l240 -652q85 -231 100 -325h6q7 44 101 325l239 652h189l-416 -1098h-231z"/>
		<glyph unicode="w" d="M813 0l-131 596l-68 330h-6l-65 -334l-135 -592h-189l-223 1098h162l98 -543q34 -186 57 -393h6q31 185 68 358l133 578h193l127 -578q43 -195 67 -358h6q31 242 60 393l102 543h158l-225 -1098h-195z"/>
		<glyph unicode="x" d="M510 563l-393 535h207l290 -410l291 410h207l-395 -535l413 -563h-206l-310 436l-311 -436h-207z"/>
		<glyph unicode="y" d="M82 1098h188l262 -654q82 -205 89 -290h6q23 112 90 292l239 652h189l-475 -1241q-67 -174 -156 -261.5t-246 -87.5q-86 0 -168 17v145q62 -12 136 -12q96 0 149.5 41t95.5 141l58 150z"/>
		<glyph unicode="z" d="M1044 0h-862v125l660 836h-627v137h811v-146l-647 -815h665v-137z"/>
		<glyph unicode="{" d="M745 -16q0 -81 56 -118.5t200 -39.5v-150q-438 6 -438 293v334q0 189 -338 189v155q338 0 338 189v333q0 287 438 293v-149q-144 -2 -200 -39.5t-56 -118.5v-332q0 -207 -233 -248v-12q233 -41 233 -248v-331z"/>
		<glyph unicode="|" d="M539 1556h149v-2048h-149v2048z"/>
		<glyph unicode="}" d="M483 315q0 207 234 248v12q-234 41 -234 248v332q0 81 -56.5 119t-199.5 39v149q439 -6 439 -293v-333q0 -189 338 -189v-155q-338 0 -338 -189v-334q0 -287 -439 -293v150q143 1 199.5 39t56.5 119v331z"/>
		<glyph unicode="~" d="M152 586v162q99 108 247 108q100 0 248 -63q130 -56 201 -56q108 0 227 121v-162q-99 -108 -248 -108q-100 0 -247 63q-131 56 -201 56q-108 0 -227 -121z"/>
		<glyph unicode="&#xa0;"/>
		<glyph unicode="&#xa1;" d="M614 1118q127 0 127 -139t-127 -139t-127 139t127 139zM553 676h121l51 -1049h-223z"/>
		<glyph unicode="&#xa2;" d="M743 1319q162 -3 318 -59l-62 -158q-150 57 -268 57q-371 0 -371 -414q0 -405 361 -405q153 0 321 61v-159q-122 -59 -299 -62v-200h-137v206q-434 69 -434 557q0 494 434 568v172h137v-164z"/>
		<glyph unicode="&#xa3;" d="M1063 1401l-66 -144q-141 72 -272 72q-223 0 -223 -246v-295h377v-137h-377v-211q0 -196 -140 -274h748v-166h-991v154q200 49 200 284v213h-198v137h198v324q0 168 108.5 268.5t289.5 100.5q192 0 346 -80z"/>
		<glyph unicode="&#xa4;" d="M303 936l-129 129l98 98l127 -129q101 68 215 68t213 -68l129 129l99 -96l-129 -129q67 -101 67 -215q0 -120 -67 -215l127 -127l-97 -96l-129 127q-99 -66 -213 -66q-118 0 -215 68l-127 -127l-96 96l127 127q-65 95 -65 213q0 114 65 213zM614 483q100 0 172 70t72 170 q0 101 -71.5 172.5t-172.5 71.5q-99 0 -169 -71t-70 -173q0 -100 70.5 -170t168.5 -70z"/>
		<glyph unicode="&#xa5;" d="M612 723l346 739h191l-385 -768h240v-137h-302v-158h302v-137h-302v-262h-178v262h-301v137h301v158h-301v137h234l-379 768h192z"/>
		<glyph unicode="&#xa6;" d="M539 1556h149v-780h-149v780zM539 289h149v-781h-149v781z"/>
		<glyph unicode="&#xa7;" d="M420 1067q-160 80 -160 236q0 120 104 192t277 72q162 0 326 -72l-56 -139q-156 67 -276 67q-201 0 -201 -116q0 -54 49.5 -93t196.5 -100q157 -62 231 -139.5t74 -190.5q0 -182 -145 -270q145 -80 145 -225q0 -138 -110.5 -218.5t-307.5 -80.5q-204 0 -323 65v158 q171 -82 323 -82q240 0 240 141q0 57 -43 97t-195 102q-197 84 -253 159t-56 179q0 179 160 258zM713 573q114 76 114 185q0 89 -73.5 144.5t-206.5 103.5q-133 -48 -133 -175q0 -73 56.5 -126.5t207.5 -116.5z"/>
		<glyph unicode="&#xa8;" d="M426 1497q96 0 96 -102q0 -103 -96 -103t-96 103q0 102 96 102zM801 1497q96 0 96 -102q0 -103 -96 -103t-96 103q0 102 96 102z"/>
		<glyph unicode="&#xa9;" d="M614 1483q286 0 447.5 -204t161.5 -548q0 -345 -162 -548t-447 -203q-286 0 -447 203.5t-161 547.5q0 343 160.5 547.5t447.5 204.5zM614 88q240 0 370 170.5t130 472.5t-130 472.5t-370 170.5t-369.5 -171t-129.5 -472t129.5 -472t369.5 -171zM874 453v-131 q-107 -50 -221 -50q-195 0 -300 123.5t-105 337.5q0 209 110 332t301 123q128 0 254 -62l-61 -127q-110 54 -193 54q-121 0 -186 -85.5t-65 -236.5q0 -323 251 -323q94 0 215 45z"/>
		<glyph unicode="&#xaa;" d="M799 797l-33 118q-104 -131 -268 -131q-222 0 -222 205q0 116 85 167.5t276 57.5l125 5v10q0 133 -152 133q-112 0 -245 -51l-41 110q138 58 294 58q291 0 291 -238v-444h-110zM662 1116q-114 -2 -174 -28t-60 -101q0 -90 104 -90q105 0 167.5 55t62.5 146v20z"/>
		<glyph unicode="&#xab;" d="M197 553l309 414l117 -78l-238 -348l238 -348l-117 -78l-309 411v27zM604 553l309 414l117 -78l-237 -348l237 -348l-117 -78l-309 411v27z"/>
		<glyph unicode="&#xac;" d="M1075 797v-535h-149v385h-774v150h923z"/>
		<glyph unicode="&#xad;" d="M285 465v168h659v-168h-659z"/>
		<glyph unicode="&#xae;" d="M614 1483q286 0 447.5 -204t161.5 -548q0 -345 -162 -548t-447 -203q-286 0 -447 203.5t-161 547.5q0 343 160.5 547.5t447.5 204.5zM614 88q240 0 370 170.5t130 472.5t-130 472.5t-370 170.5t-369.5 -171t-129.5 -472t129.5 -472t369.5 -171zM748 680l237 -395h-178 l-207 352h-94v-352h-158v893h234q325 0 325 -265q0 -163 -159 -233zM506 768h72q170 0 170 141q0 74 -42 103.5t-131 29.5h-69v-274z"/>
		<glyph unicode="&#xaf;" d="M1249 1556h-1269v140h1269v-140z"/>
		<glyph unicode="&#xb0;" d="M614 1483q129 0 222.5 -93.5t93.5 -222.5t-93 -221t-223 -92q-131 0 -223 92.5t-92 220.5q0 129 92.5 222.5t222.5 93.5zM614 977q79 0 136 56t57 134q0 81 -57.5 138t-135.5 57q-79 0 -135.5 -57.5t-56.5 -137.5q0 -78 56 -134t136 -56z"/>
		<glyph unicode="&#xb1;" d="M152 0v150h923v-150h-923zM539 647h-387v150h387v389h149v-389h387v-150h-387v-385h-149v385z"/>
		<glyph unicode="&#xb2;" d="M879 672h-531v102l187 199q111 118 141.5 168.5t30.5 107.5q0 115 -111 115q-81 0 -164 -76l-78 86q117 103 248 103q118 0 183 -60t65 -164q0 -66 -35 -134t-164 -197l-135 -136h363v-114z"/>
		<glyph unicode="&#xb3;" d="M670 1085q176 -39 176 -186q0 -116 -74.5 -180t-214.5 -64q-131 0 -215 50v124q110 -65 203 -65q149 0 149 137q0 125 -147 125h-72v104h70q123 0 123 127q0 111 -97 111q-71 0 -161 -70l-66 86q111 93 238 93q109 0 173 -54.5t64 -148.5q0 -139 -149 -189z"/>
		<glyph unicode="&#xb4;" d="M418 1268q94 133 174 301h219v-21q-112 -173 -272 -307h-121v27z"/>
		<glyph unicode="&#xb5;" d="M362 391q0 -260 218 -260q148 0 217 91t69 306v570h183v-1098h-148l-27 147h-10q-96 -167 -295 -167q-139 0 -213 88q6 -153 6 -240v-320h-182v1590h182v-707z"/>
		<glyph unicode="&#xb6;" d="M1079 -260h-121v1657h-206v-1657h-121v819q-61 -18 -146 -18q-419 0 -419 501q0 259 108.5 386.5t341.5 127.5h563v-1816z"/>
		<glyph unicode="&#xb7;" d="M614 862q127 0 127 -139t-127 -139t-127 139t127 139z"/>
		<glyph unicode="&#xb8;" d="M428 -483v108q33 -6 80 -6q151 0 151 92q0 74 -172 113l91 176h120l-57 -115q160 -37 160 -172q0 -205 -291 -205q-34 0 -82 9z"/>
		<glyph unicode="&#xb9;" d="M586 1460h135v-788h-146v465q0 69 9 200q-41 -44 -74 -65l-70 -51l-73 88z"/>
		<glyph unicode="&#xba;" d="M612 784q-144 0 -237.5 93t-93.5 256q0 162 90 254t245 92q145 0 238.5 -92.5t93.5 -253.5q0 -165 -92 -257t-244 -92zM614 903q181 0 181 230q0 225 -181 225q-182 0 -182 -225q0 -230 182 -230z"/>
		<glyph unicode="&#xbb;" d="M1030 526l-309 -411l-117 78l238 348l-238 348l117 78l309 -414v-27zM623 526l-310 -411l-116 78l237 348l-237 348l116 78l310 -414v-27z"/>
		<glyph unicode="&#xbc;" d="M241 1460h135v-788h-146v465q0 69 9 200q-41 -44 -74 -65l-70 -51l-73 88zM1057 1462l-729 -1462h-158l729 1462h158zM1208 175h-84v-174h-143v174h-375v98l377 523h141v-508h84v-113zM981 288v176q0 82 6 172q-40 -73 -80 -131l-156 -217h230z"/>
		<glyph unicode="&#xbd;" d="M222 1460h135v-788h-146v465q0 69 9 200q-41 -44 -74 -65l-70 -51l-73 88zM992 1462l-729 -1462h-158l729 1462h158zM1225 1h-531v102l187 199q111 118 141.5 168.5t30.5 107.5q0 115 -111 115q-81 0 -164 -76l-78 86q117 103 248 103q118 0 183 -60t65 -164 q0 -66 -35 -134t-164 -197l-135 -136h363v-114z"/>
		<glyph unicode="&#xbe;" d="M349 1085q176 -39 176 -186q0 -116 -74.5 -180t-214.5 -64q-131 0 -215 50v124q110 -65 203 -65q149 0 149 137q0 125 -147 125h-72v104h70q123 0 123 127q0 111 -97 111q-71 0 -161 -70l-66 86q111 93 238 93q109 0 173 -54.5t64 -148.5q0 -139 -149 -189zM1110 1462 l-729 -1462h-158l729 1462h158zM1229 175h-84v-174h-143v174h-375v98l377 523h141v-508h84v-113zM1002 288v176q0 82 6 172q-40 -73 -80 -131l-156 -217h230z"/>
		<glyph unicode="&#xbf;" d="M674 1118q127 0 127 -139t-127 -139t-127 139t127 139zM762 676v-37q0 -119 -44.5 -193.5t-162.5 -158.5q-129 -97 -171 -155t-42 -159q0 -93 74.5 -149.5t206.5 -56.5q181 0 370 90l62 -144q-219 -106 -422 -106q-217 0 -341 97.5t-124 260.5q0 134 53.5 217t196.5 191 q119 87 151.5 140.5t32.5 143.5v19h160z"/>
		<glyph unicode="&#xc0;" d="M1004 0l-144 453h-491l-146 -453h-190l483 1468h195l485 -1468h-192zM807 618l-133 424q-39 124 -62 226q-20 -99 -46 -183l-144 -467h385zM734 1579h-121q-166 142 -272 307v21h219q86 -178 174 -301v-27z"/>
		<glyph unicode="&#xc1;" d="M1004 0l-144 453h-491l-146 -453h-190l483 1468h195l485 -1468h-192zM807 618l-133 424q-39 124 -62 226q-20 -99 -46 -183l-144 -467h385zM520 1606q94 133 174 301h219v-21q-112 -173 -272 -307h-121v27z"/>
		<glyph unicode="&#xc2;" d="M1004 0l-144 453h-491l-146 -453h-190l483 1468h195l485 -1468h-192zM807 618l-133 424q-39 124 -62 226q-20 -99 -46 -183l-144 -467h385zM946 1579h-121q-85 56 -211 186q-133 -136 -211 -186h-120v27l59 67q139 155 176 234h193q37 -79 176 -234l59 -67v-27z"/>
		<glyph unicode="&#xc3;" d="M1004 0l-144 453h-491l-146 -453h-190l483 1468h195l485 -1468h-192zM807 618l-133 424q-39 124 -62 226q-20 -99 -46 -183l-144 -467h385zM357 1579h-104q25 264 211 264q58 0 161 -56q102 -56 136 -56q80 0 106 114h105q-27 -264 -211 -264q-57 0 -157 57 q-100 56 -140 56q-82 0 -107 -115z"/>
		<glyph unicode="&#xc4;" d="M1004 0l-144 453h-491l-146 -453h-190l483 1468h195l485 -1468h-192zM807 618l-133 424q-39 124 -62 226q-20 -99 -46 -183l-144 -467h385zM426 1835q96 0 96 -102q0 -103 -96 -103t-96 103q0 102 96 102zM801 1835q96 0 96 -102q0 -103 -96 -103t-96 103q0 102 96 102z "/>
		<glyph unicode="&#xc5;" d="M1004 0l-144 453h-491l-146 -453h-190l483 1468h195l485 -1468h-192zM807 618l-133 424q-39 124 -62 226q-20 -99 -46 -183l-144 -467h385zM610 1366q-102 0 -162.5 58t-60.5 157t60.5 157t162.5 58q101 0 165.5 -59t64.5 -154q0 -98 -63.5 -157.5t-166.5 -59.5z M610 1694q-49 0 -80.5 -30t-31.5 -83q0 -113 112 -113q50 0 81.5 30t31.5 83t-31.5 83t-81.5 30z"/>
		<glyph unicode="&#xc6;" d="M1210 0h-653v453h-289l-96 -453h-172l338 1462h872v-164h-477v-452h438v-162h-438v-520h477v-164zM305 618h252v680h-106z"/>
		<glyph unicode="&#xc7;" d="M1124 201v-162q-146 -59 -358 -59q-309 0 -473 196t-164 557q0 346 179 548t489 202q220 0 383 -86l-78 -156q-154 78 -305 78q-215 0 -343 -158.5t-128 -429.5q0 -287 120 -437.5t351 -150.5q130 0 327 58zM508 -483v108q33 -6 80 -6q151 0 151 92q0 74 -172 113l91 176 h120l-57 -115q160 -37 160 -172q0 -205 -291 -205q-34 0 -82 9z"/>
		<glyph unicode="&#xc8;" d="M1059 0h-842v1462h842v-164h-656v-452h617v-162h-617v-520h656v-164zM738 1579h-121q-166 142 -272 307v21h219q86 -178 174 -301v-27z"/>
		<glyph unicode="&#xc9;" d="M1059 0h-842v1462h842v-164h-656v-452h617v-162h-617v-520h656v-164zM481 1606q94 133 174 301h219v-21q-112 -173 -272 -307h-121v27z"/>
		<glyph unicode="&#xca;" d="M1059 0h-842v1462h842v-164h-656v-452h617v-162h-617v-520h656v-164zM981 1579h-121q-85 56 -211 186q-133 -136 -211 -186h-120v27l59 67q139 155 176 234h193q37 -79 176 -234l59 -67v-27z"/>
		<glyph unicode="&#xcb;" d="M1059 0h-842v1462h842v-164h-656v-452h617v-162h-617v-520h656v-164zM451 1835q96 0 96 -102q0 -103 -96 -103t-96 103q0 102 96 102zM826 1835q96 0 96 -102q0 -103 -96 -103t-96 103q0 102 96 102z"/>
		<glyph unicode="&#xcc;" d="M1001 0h-776v123l295 20v1176l-295 20v123h776v-123l-294 -20v-1176l294 -20v-123zM703 1579h-121q-166 142 -272 307v21h219q86 -178 174 -301v-27z"/>
		<glyph unicode="&#xcd;" d="M1001 0h-776v123l295 20v1176l-295 20v123h776v-123l-294 -20v-1176l294 -20v-123zM537 1606q94 133 174 301h219v-21q-112 -173 -272 -307h-121v27z"/>
		<glyph unicode="&#xce;" d="M1001 0h-776v123l295 20v1176l-295 20v123h776v-123l-294 -20v-1176l294 -20v-123zM946 1579h-121q-85 56 -211 186q-133 -136 -211 -186h-120v27l59 67q139 155 176 234h193q37 -79 176 -234l59 -67v-27z"/>
		<glyph unicode="&#xcf;" d="M1001 0h-776v123l295 20v1176l-295 20v123h776v-123l-294 -20v-1176l294 -20v-123zM428 1835q96 0 96 -102q0 -103 -96 -103t-96 103q0 102 96 102zM803 1835q96 0 96 -102q0 -103 -96 -103t-96 103q0 102 96 102z"/>
		<glyph unicode="&#xd0;" d="M135 0v659h-135v162h135v641h342q317 0 493.5 -189t176.5 -528q0 -361 -183 -553t-528 -192h-301zM322 1303v-482h380v-162h-380v-499h96q532 0 532 579q0 564 -493 564h-135z"/>
		<glyph unicode="&#xd1;" d="M1092 0h-215l-580 1210h-8q18 -277 18 -417v-793h-172v1462h213l578 -1204h6q-14 303 -14 404v800h174v-1462zM362 1579h-104q25 264 211 264q58 0 161 -56q102 -56 136 -56q80 0 106 114h105q-27 -264 -211 -264q-57 0 -157 57q-100 56 -140 56q-82 0 -107 -115z"/>
		<glyph unicode="&#xd2;" d="M616 -20q-532 0 -532 755q0 750 534 750q256 0 392.5 -195.5t136.5 -556.5t-138 -557t-393 -196zM616 143q173 0 253.5 145t80.5 445q0 303 -81.5 445.5t-250.5 142.5q-337 0 -337 -588q0 -590 335 -590zM730 1579h-121q-166 142 -272 307v21h219q86 -178 174 -301v-27z "/>
		<glyph unicode="&#xd3;" d="M616 -20q-532 0 -532 755q0 750 534 750q256 0 392.5 -195.5t136.5 -556.5t-138 -557t-393 -196zM616 143q173 0 253.5 145t80.5 445q0 303 -81.5 445.5t-250.5 142.5q-337 0 -337 -588q0 -590 335 -590zM508 1606q94 133 174 301h219v-21q-112 -173 -272 -307h-121v27z "/>
		<glyph unicode="&#xd4;" d="M616 -20q-532 0 -532 755q0 750 534 750q256 0 392.5 -195.5t136.5 -556.5t-138 -557t-393 -196zM616 143q173 0 253.5 145t80.5 445q0 303 -81.5 445.5t-250.5 142.5q-337 0 -337 -588q0 -590 335 -590zM946 1579h-121q-85 56 -211 186q-133 -136 -211 -186h-120v27 l59 67q139 155 176 234h193q37 -79 176 -234l59 -67v-27z"/>
		<glyph unicode="&#xd5;" d="M616 -20q-532 0 -532 755q0 750 534 750q256 0 392.5 -195.5t136.5 -556.5t-138 -557t-393 -196zM616 143q173 0 253.5 145t80.5 445q0 303 -81.5 445.5t-250.5 142.5q-337 0 -337 -588q0 -590 335 -590zM366 1579h-104q25 264 211 264q58 0 161 -56q102 -56 136 -56 q80 0 106 114h105q-27 -264 -211 -264q-57 0 -157 57q-100 56 -140 56q-82 0 -107 -115z"/>
		<glyph unicode="&#xd6;" d="M616 -20q-532 0 -532 755q0 750 534 750q256 0 392.5 -195.5t136.5 -556.5t-138 -557t-393 -196zM616 143q173 0 253.5 145t80.5 445q0 303 -81.5 445.5t-250.5 142.5q-337 0 -337 -588q0 -590 335 -590zM428 1835q96 0 96 -102q0 -103 -96 -103t-96 103q0 102 96 102z M803 1835q96 0 96 -102q0 -103 -96 -103t-96 103q0 102 96 102z"/>
		<glyph unicode="&#xd7;" d="M508 723l-318 319l105 105l317 -318l322 318l104 -103l-321 -321l319 -320l-102 -102l-322 317l-317 -315l-102 103z"/>
		<glyph unicode="&#xd8;" d="M309 74l-92 -150l-137 78l121 197q-117 184 -117 536q0 750 534 750q186 0 310 -105l92 152l137 -78l-125 -201q115 -188 115 -520q0 -361 -138 -557t-393 -196q-189 0 -307 94zM319 391l515 836q-80 94 -216 94q-337 0 -337 -588q0 -212 38 -342zM915 1061l-512 -832 q80 -86 213 -86q173 0 253.5 145t80.5 445q0 209 -35 328z"/>
		<glyph unicode="&#xd9;" d="M1104 1464v-948q0 -260 -126 -398t-370 -138q-483 0 -483 540v942h186v-932q0 -387 307 -387q295 0 300 389v932h186zM742 1579h-121q-166 142 -272 307v21h219q86 -178 174 -301v-27z"/>
		<glyph unicode="&#xda;" d="M1104 1464v-948q0 -260 -126 -398t-370 -138q-483 0 -483 540v942h186v-932q0 -387 307 -387q295 0 300 389v932h186zM494 1606q94 133 174 301h219v-21q-112 -173 -272 -307h-121v27z"/>
		<glyph unicode="&#xdb;" d="M1104 1464v-948q0 -260 -126 -398t-370 -138q-483 0 -483 540v942h186v-932q0 -387 307 -387q295 0 300 389v932h186zM946 1579h-121q-85 56 -211 186q-133 -136 -211 -186h-120v27l59 67q139 155 176 234h193q37 -79 176 -234l59 -67v-27z"/>
		<glyph unicode="&#xdc;" d="M1104 1464v-948q0 -260 -126 -398t-370 -138q-483 0 -483 540v942h186v-932q0 -387 307 -387q295 0 300 389v932h186zM428 1835q96 0 96 -102q0 -103 -96 -103t-96 103q0 102 96 102zM803 1835q96 0 96 -102q0 -103 -96 -103t-96 103q0 102 96 102z"/>
		<glyph unicode="&#xdd;" d="M612 723l381 739h201l-487 -893v-569h-187v559l-487 903h203zM494 1606q94 133 174 301h219v-21q-112 -173 -272 -307h-121v27z"/>
		<glyph unicode="&#xde;" d="M362 317v-317h-186v1462h186v-252h218q514 0 514 -428q0 -219 -138.5 -342t-402.5 -123h-191zM362 475h170q198 0 283.5 72t85.5 225q0 279 -338 279h-201v-576z"/>
		<glyph unicode="&#xdf;" d="M479 49v166q143 -86 277 -86q213 0 213 174q0 81 -45.5 132t-143.5 112q-123 78 -173 139t-50 148q0 117 129 223t129 196q0 164 -227 164q-242 0 -242 -215v-1202h-182v1200q0 367 424 367q194 0 302.5 -79.5t108.5 -227.5q0 -132 -133 -249q-84 -74 -108.5 -105 t-24.5 -64q0 -39 29 -69t151 -111q144 -95 191 -173t47 -176q0 -162 -100 -247.5t-283 -85.5q-182 0 -289 69z"/>
		<glyph unicode="&#xe0;" d="M895 0l-37 152h-8q-77 -97 -158 -134.5t-209 -37.5q-163 0 -255.5 86t-92.5 241q0 332 510 348l203 7v69q0 236 -244 236q-147 0 -328 -82l-63 137q196 96 383 96q227 0 328.5 -87t101.5 -279v-752h-131zM846 537l-162 -7q-196 -8 -278 -61.5t-82 -163.5q0 -178 200 -178 q147 0 234.5 81.5t87.5 229.5v99zM726 1241h-121q-166 142 -272 307v21h219q86 -178 174 -301v-27z"/>
		<glyph unicode="&#xe1;" d="M895 0l-37 152h-8q-77 -97 -158 -134.5t-209 -37.5q-163 0 -255.5 86t-92.5 241q0 332 510 348l203 7v69q0 236 -244 236q-147 0 -328 -82l-63 137q196 96 383 96q227 0 328.5 -87t101.5 -279v-752h-131zM846 537l-162 -7q-196 -8 -278 -61.5t-82 -163.5q0 -178 200 -178 q147 0 234.5 81.5t87.5 229.5v99zM502 1268q94 133 174 301h219v-21q-112 -173 -272 -307h-121v27z"/>
		<glyph unicode="&#xe2;" d="M895 0l-37 152h-8q-77 -97 -158 -134.5t-209 -37.5q-163 0 -255.5 86t-92.5 241q0 332 510 348l203 7v69q0 236 -244 236q-147 0 -328 -82l-63 137q196 96 383 96q227 0 328.5 -87t101.5 -279v-752h-131zM846 537l-162 -7q-196 -8 -278 -61.5t-82 -163.5q0 -178 200 -178 q147 0 234.5 81.5t87.5 229.5v99zM954 1241h-121q-85 56 -211 186q-133 -136 -211 -186h-120v27l59 67q139 155 176 234h193q37 -79 176 -234l59 -67v-27z"/>
		<glyph unicode="&#xe3;" d="M895 0l-37 152h-8q-77 -97 -158 -134.5t-209 -37.5q-163 0 -255.5 86t-92.5 241q0 332 510 348l203 7v69q0 236 -244 236q-147 0 -328 -82l-63 137q196 96 383 96q227 0 328.5 -87t101.5 -279v-752h-131zM846 537l-162 -7q-196 -8 -278 -61.5t-82 -163.5q0 -178 200 -178 q147 0 234.5 81.5t87.5 229.5v99zM368 1241h-104q25 264 211 264q58 0 161 -56q102 -56 136 -56q80 0 106 114h105q-27 -264 -211 -264q-57 0 -157 57q-100 56 -140 56q-82 0 -107 -115z"/>
		<glyph unicode="&#xe4;" d="M895 0l-37 152h-8q-77 -97 -158 -134.5t-209 -37.5q-163 0 -255.5 86t-92.5 241q0 332 510 348l203 7v69q0 236 -244 236q-147 0 -328 -82l-63 137q196 96 383 96q227 0 328.5 -87t101.5 -279v-752h-131zM846 537l-162 -7q-196 -8 -278 -61.5t-82 -163.5q0 -178 200 -178 q147 0 234.5 81.5t87.5 229.5v99zM438 1497q96 0 96 -102q0 -103 -96 -103t-96 103q0 102 96 102zM813 1497q96 0 96 -102q0 -103 -96 -103t-96 103q0 102 96 102z"/>
		<glyph unicode="&#xe5;" d="M895 0l-37 152h-8q-77 -97 -158 -134.5t-209 -37.5q-163 0 -255.5 86t-92.5 241q0 332 510 348l203 7v69q0 236 -244 236q-147 0 -328 -82l-63 137q196 96 383 96q227 0 328.5 -87t101.5 -279v-752h-131zM846 537l-162 -7q-196 -8 -278 -61.5t-82 -163.5q0 -178 200 -178 q147 0 234.5 81.5t87.5 229.5v99zM609 1241q-102 0 -162.5 58t-60.5 157t60.5 157t162.5 58q101 0 165.5 -59t64.5 -154q0 -98 -63.5 -157.5t-166.5 -59.5zM609 1569q-49 0 -80.5 -30t-31.5 -83q0 -113 112 -113q50 0 81.5 30t31.5 83t-31.5 83t-81.5 30z"/>
		<glyph unicode="&#xe6;" d="M522 662v69q0 236 -139 236q-107 0 -211 -82l-57 137q131 96 276 96q188 0 246 -178q78 178 240 178q137 0 223 -135.5t86 -355.5v-113h-496q3 -192 67 -283.5t169 -91.5q111 0 233 76v-162q-107 -73 -241 -73q-222 0 -316 229q-105 -229 -301 -229q-115 0 -185.5 86.5 t-70.5 240.5q0 332 328 348zM694 662h316q0 141 -40.5 223t-111.5 82q-68 0 -113 -78t-51 -227zM520 537l-88 -7q-217 -17 -217 -225q0 -83 32 -130.5t87 -47.5q82 0 134 82.5t52 228.5v99z"/>
		<glyph unicode="&#xe7;" d="M1061 1059l-62 -158q-150 57 -268 57q-371 0 -371 -413q0 -406 361 -406q157 0 321 62v-160q-134 -61 -329 -61q-257 0 -399 145.5t-142 417.5q0 281 145 428t408 147q178 0 336 -59zM477 -483v108q33 -6 80 -6q151 0 151 92q0 74 -172 113l91 176h120l-57 -115 q160 -37 160 -172q0 -205 -291 -205q-34 0 -82 9z"/>
		<glyph unicode="&#xe8;" d="M1096 514h-774q8 -375 344 -375q195 0 370 76v-160q-166 -75 -364 -75q-245 0 -392 149.5t-147 411.5q0 266 135.5 421.5t362.5 155.5q212 0 338.5 -134t126.5 -357v-113zM326 662h573q0 305 -272 305q-275 0 -301 -305zM767 1241h-121q-166 142 -272 307v21h219 q86 -178 174 -301v-27z"/>
		<glyph unicode="&#xe9;" d="M1096 514h-774q8 -375 344 -375q195 0 370 76v-160q-166 -75 -364 -75q-245 0 -392 149.5t-147 411.5q0 266 135.5 421.5t362.5 155.5q212 0 338.5 -134t126.5 -357v-113zM326 662h573q0 305 -272 305q-275 0 -301 -305zM500 1268q94 133 174 301h219v-21 q-112 -173 -272 -307h-121v27z"/>
		<glyph unicode="&#xea;" d="M1096 514h-774q8 -375 344 -375q195 0 370 76v-160q-166 -75 -364 -75q-245 0 -392 149.5t-147 411.5q0 266 135.5 421.5t362.5 155.5q212 0 338.5 -134t126.5 -357v-113zM326 662h573q0 305 -272 305q-275 0 -301 -305zM962 1241h-121q-85 56 -211 186 q-133 -136 -211 -186h-120v27l59 67q139 155 176 234h193q37 -79 176 -234l59 -67v-27z"/>
		<glyph unicode="&#xeb;" d="M1096 514h-774q8 -375 344 -375q195 0 370 76v-160q-166 -75 -364 -75q-245 0 -392 149.5t-147 411.5q0 266 135.5 421.5t362.5 155.5q212 0 338.5 -134t126.5 -357v-113zM326 662h573q0 305 -272 305q-275 0 -301 -305zM444 1497q96 0 96 -102q0 -103 -96 -103t-96 103 q0 102 96 102zM819 1497q96 0 96 -102q0 -103 -96 -103t-96 103q0 102 96 102z"/>
		<glyph unicode="&#xec;" d="M541 954l-269 21v123h451v-955l352 -20v-123h-878v123l344 20v811zM726 1241h-121q-166 142 -272 307v21h219q86 -178 174 -301v-27z"/>
		<glyph unicode="&#xed;" d="M541 954l-269 21v123h451v-955l352 -20v-123h-878v123l344 20v811zM531 1268q94 133 174 301h219v-21q-112 -173 -272 -307h-121v27z"/>
		<glyph unicode="&#xee;" d="M541 954l-269 21v123h451v-955l352 -20v-123h-878v123l344 20v811zM946 1241h-121q-85 56 -211 186q-133 -136 -211 -186h-120v27l59 67q139 155 176 234h193q37 -79 176 -234l59 -67v-27z"/>
		<glyph unicode="&#xef;" d="M541 954l-269 21v123h451v-955l352 -20v-123h-878v123l344 20v811zM426 1497q96 0 96 -102q0 -103 -96 -103t-96 103q0 102 96 102zM801 1497q96 0 96 -102q0 -103 -96 -103t-96 103q0 102 96 102z"/>
		<glyph unicode="&#xf0;" d="M889 852l8 4q-58 226 -242 391l-256 -153l-73 114l217 131q-104 71 -172 109l69 123q143 -70 246 -148l227 138l74 -113l-194 -117q301 -291 301 -758q0 -277 -128.5 -435t-353.5 -158q-213 0 -345 133.5t-132 363.5q0 234 120.5 364t334.5 130q211 0 299 -119zM614 823 q-286 0 -286 -352q0 -340 288 -340q154 0 221.5 99.5t67.5 295.5q0 129 -77.5 213t-213.5 84z"/>
		<glyph unicode="&#xf1;" d="M887 0v707q0 260 -238 260q-307 0 -307 -398v-569h-182v1098h147l27 -148h10q103 168 336 168q389 0 389 -401v-717h-182zM364 1241h-104q25 264 211 264q58 0 161 -56q102 -56 136 -56q80 0 106 114h105q-27 -264 -211 -264q-57 0 -157 57q-100 56 -140 56 q-82 0 -107 -115z"/>
		<glyph unicode="&#xf2;" d="M610 -20q-216 0 -355.5 155.5t-139.5 415.5q0 263 135.5 415t365.5 152q218 0 357 -155t139 -412q0 -265 -137 -418t-365 -153zM614 131q310 0 310 420q0 416 -312 416q-309 0 -309 -416q0 -420 311 -420zM771 1241h-121q-166 142 -272 307v21h219q86 -178 174 -301v-27z "/>
		<glyph unicode="&#xf3;" d="M610 -20q-216 0 -355.5 155.5t-139.5 415.5q0 263 135.5 415t365.5 152q218 0 357 -155t139 -412q0 -265 -137 -418t-365 -153zM614 131q310 0 310 420q0 416 -312 416q-309 0 -309 -416q0 -420 311 -420zM498 1268q94 133 174 301h219v-21q-112 -173 -272 -307h-121v27z "/>
		<glyph unicode="&#xf4;" d="M610 -20q-216 0 -355.5 155.5t-139.5 415.5q0 263 135.5 415t365.5 152q218 0 357 -155t139 -412q0 -265 -137 -418t-365 -153zM614 131q310 0 310 420q0 416 -312 416q-309 0 -309 -416q0 -420 311 -420zM941 1241h-121q-85 56 -211 186q-133 -136 -211 -186h-120v27 l59 67q139 155 176 234h193q37 -79 176 -234l59 -67v-27z"/>
		<glyph unicode="&#xf5;" d="M610 -20q-216 0 -355.5 155.5t-139.5 415.5q0 263 135.5 415t365.5 152q218 0 357 -155t139 -412q0 -265 -137 -418t-365 -153zM614 131q310 0 310 420q0 416 -312 416q-309 0 -309 -416q0 -420 311 -420zM358 1241h-104q25 264 211 264q58 0 161 -56q102 -56 136 -56 q80 0 106 114h105q-27 -264 -211 -264q-57 0 -157 57q-100 56 -140 56q-82 0 -107 -115z"/>
		<glyph unicode="&#xf6;" d="M610 -20q-216 0 -355.5 155.5t-139.5 415.5q0 263 135.5 415t365.5 152q218 0 357 -155t139 -412q0 -265 -137 -418t-365 -153zM614 131q310 0 310 420q0 416 -312 416q-309 0 -309 -416q0 -420 311 -420zM419 1497q96 0 96 -102q0 -103 -96 -103t-96 103q0 102 96 102z M794 1497q96 0 96 -102q0 -103 -96 -103t-96 103q0 102 96 102z"/>
		<glyph unicode="&#xf7;" d="M152 647v150h923v-150h-923zM612 1196q115 0 115 -125t-115 -125q-114 0 -114 125t114 125zM612 498q115 0 115 -125t-115 -125q-114 0 -114 125t114 125z"/>
		<glyph unicode="&#xf8;" d="M377 33l-76 -119l-131 84l84 131q-139 158 -139 422q0 266 133 416.5t368 150.5q128 0 236 -57l76 119l131 -84l-84 -131q137 -156 137 -414q0 -271 -134.5 -421t-367.5 -150q-129 0 -233 53zM356 276l406 656q-66 35 -156 35q-161 0 -232 -103.5t-71 -312.5 q0 -180 53 -275zM872 817l-405 -653q61 -33 154 -33q161 0 232 105.5t71 314.5q0 164 -52 266z"/>
		<glyph unicode="&#xf9;" d="M922 0l-27 147h-10q-105 -167 -334 -167q-391 0 -391 401v717h182v-707q0 -260 236 -260q161 0 235 92.5t74 304.5v570h182v-1098h-147zM734 1241h-121q-166 142 -272 307v21h219q86 -178 174 -301v-27z"/>
		<glyph unicode="&#xfa;" d="M922 0l-27 147h-10q-105 -167 -334 -167q-391 0 -391 401v717h182v-707q0 -260 236 -260q161 0 235 92.5t74 304.5v570h182v-1098h-147zM500 1268q94 133 174 301h219v-21q-112 -173 -272 -307h-121v27z"/>
		<glyph unicode="&#xfb;" d="M922 0l-27 147h-10q-105 -167 -334 -167q-391 0 -391 401v717h182v-707q0 -260 236 -260q161 0 235 92.5t74 304.5v570h182v-1098h-147zM954 1241h-121q-85 56 -211 186q-133 -136 -211 -186h-120v27l59 67q139 155 176 234h193q37 -79 176 -234l59 -67v-27z"/>
		<glyph unicode="&#xfc;" d="M922 0l-27 147h-10q-105 -167 -334 -167q-391 0 -391 401v717h182v-707q0 -260 236 -260q161 0 235 92.5t74 304.5v570h182v-1098h-147zM428 1497q96 0 96 -102q0 -103 -96 -103t-96 103q0 102 96 102zM803 1497q96 0 96 -102q0 -103 -96 -103t-96 103q0 102 96 102z"/>
		<glyph unicode="&#xfd;" d="M82 1098h188l262 -654q82 -205 89 -290h6q23 112 90 292l239 652h189l-475 -1241q-67 -174 -156 -261.5t-246 -87.5q-86 0 -168 17v145q62 -12 136 -12q96 0 149.5 41t95.5 141l58 150zM494 1268q94 133 174 301h219v-21q-112 -173 -272 -307h-121v27z"/>
		<glyph unicode="&#xfe;" d="M340 950q110 168 322 168q201 0 315.5 -149.5t114.5 -417.5q0 -270 -115 -420.5t-315 -150.5q-207 0 -322 159h-12q12 -129 12 -162v-469h-182v2048h182v-458l-8 -148h8zM340 592v-41q0 -227 69.5 -323.5t221.5 -96.5q272 0 272 422q0 414 -274 414q-152 0 -218.5 -88 t-70.5 -287z"/>
		<glyph unicode="&#xff;" d="M82 1098h188l262 -654q82 -205 89 -290h6q23 112 90 292l239 652h189l-475 -1241q-67 -174 -156 -261.5t-246 -87.5q-86 0 -168 17v145q62 -12 136 -12q96 0 149.5 41t95.5 141l58 150zM434 1497q96 0 96 -102q0 -103 -96 -103t-96 103q0 102 96 102zM809 1497 q96 0 96 -102q0 -103 -96 -103t-96 103q0 102 96 102z"/>
		<glyph unicode="&#x100;" d="M1004 0l-144 453h-491l-146 -453h-190l483 1468h195l485 -1468h-192zM807 618l-133 424q-39 124 -62 226q-20 -99 -46 -183l-144 -467h385zM326 1729h575v-150h-575v150z"/>
		<glyph unicode="&#x101;" d="M895 0l-37 152h-8q-77 -97 -158 -134.5t-209 -37.5q-163 0 -255.5 86t-92.5 241q0 332 510 348l203 7v69q0 236 -244 236q-147 0 -328 -82l-63 137q196 96 383 96q227 0 328.5 -87t101.5 -279v-752h-131zM846 537l-162 -7q-196 -8 -278 -61.5t-82 -163.5q0 -178 200 -178 q147 0 234.5 81.5t87.5 229.5v99zM317 1391h575v-150h-575v150z"/>
		<glyph unicode="&#x102;" d="M1004 0l-144 453h-491l-146 -453h-190l483 1468h195l485 -1468h-192zM807 618l-133 424q-39 124 -62 226q-20 -99 -46 -183l-144 -467h385zM912 1856q-9 -127 -89 -202t-216 -75q-280 0 -297 277h109q7 -76 46.5 -100.5t143.5 -24.5q181 0 191 125h112z"/>
		<glyph unicode="&#x103;" d="M895 0l-37 152h-8q-77 -97 -158 -134.5t-209 -37.5q-163 0 -255.5 86t-92.5 241q0 332 510 348l203 7v69q0 236 -244 236q-147 0 -328 -82l-63 137q196 96 383 96q227 0 328.5 -87t101.5 -279v-752h-131zM846 537l-162 -7q-196 -8 -278 -61.5t-82 -163.5q0 -178 200 -178 q147 0 234.5 81.5t87.5 229.5v99zM904 1518q-9 -127 -89 -202t-216 -75q-280 0 -297 277h109q7 -76 46.5 -100.5t143.5 -24.5q181 0 191 125h112z"/>
		<glyph unicode="&#x104;" d="M1004 0l-144 453h-491l-146 -453h-190l483 1468h195l485 -1468h-192zM807 618l-133 424q-39 124 -62 226q-20 -99 -46 -183l-144 -467h385zM1214 -319v-113q-73 -23 -156 -23q-119 0 -182 54.5t-63 148.5q0 144 190 252h131q-170 -125 -170 -238q0 -96 127 -96 q66 0 123 15z"/>
		<glyph unicode="&#x105;" d="M895 0l-37 152h-8q-77 -97 -158 -134.5t-209 -37.5q-163 0 -255.5 86t-92.5 241q0 332 510 348l203 7v69q0 236 -244 236q-147 0 -328 -82l-63 137q196 96 383 96q227 0 328.5 -87t101.5 -279v-752h-131zM846 537l-162 -7q-196 -8 -278 -61.5t-82 -163.5q0 -178 200 -178 q147 0 234.5 81.5t87.5 229.5v99zM1106 -319v-113q-73 -23 -156 -23q-119 0 -182 54.5t-63 148.5q0 144 190 252h131q-170 -125 -170 -238q0 -96 127 -96q66 0 123 15z"/>
		<glyph unicode="&#x106;" d="M1124 201v-162q-146 -59 -358 -59q-309 0 -473 196t-164 557q0 346 179 548t489 202q220 0 383 -86l-78 -156q-154 78 -305 78q-215 0 -343 -158.5t-128 -429.5q0 -287 120 -437.5t351 -150.5q130 0 327 58zM660 1606q94 133 174 301h219v-21q-112 -173 -272 -307h-121 v27z"/>
		<glyph unicode="&#x107;" d="M1061 1059l-62 -158q-150 57 -268 57q-371 0 -371 -413q0 -406 361 -406q157 0 321 62v-160q-134 -61 -329 -61q-257 0 -399 145.5t-142 417.5q0 281 145 428t408 147q178 0 336 -59zM578 1268q94 133 174 301h219v-21q-112 -173 -272 -307h-121v27z"/>
		<glyph unicode="&#x108;" d="M1124 201v-162q-146 -59 -358 -59q-309 0 -473 196t-164 557q0 346 179 548t489 202q220 0 383 -86l-78 -156q-154 78 -305 78q-215 0 -343 -158.5t-128 -429.5q0 -287 120 -437.5t351 -150.5q130 0 327 58zM1106 1579h-121q-85 56 -211 186q-133 -136 -211 -186h-120v27 l59 67q139 155 176 234h193q37 -79 176 -234l59 -67v-27z"/>
		<glyph unicode="&#x109;" d="M1061 1059l-62 -158q-150 57 -268 57q-371 0 -371 -413q0 -406 361 -406q157 0 321 62v-160q-134 -61 -329 -61q-257 0 -399 145.5t-142 417.5q0 281 145 428t408 147q178 0 336 -59zM1030 1241h-121q-85 56 -211 186q-133 -136 -211 -186h-120v27l59 67q139 155 176 234 h193q37 -79 176 -234l59 -67v-27z"/>
		<glyph unicode="&#x10a;" d="M1124 201v-162q-146 -59 -358 -59q-309 0 -473 196t-164 557q0 346 179 548t489 202q220 0 383 -86l-78 -156q-154 78 -305 78q-215 0 -343 -158.5t-128 -429.5q0 -287 120 -437.5t351 -150.5q130 0 327 58zM778 1847q107 0 107 -114q0 -115 -107 -115q-106 0 -106 115 q0 114 106 114z"/>
		<glyph unicode="&#x10b;" d="M1061 1059l-62 -158q-150 57 -268 57q-371 0 -371 -413q0 -406 361 -406q157 0 321 62v-160q-134 -61 -329 -61q-257 0 -399 145.5t-142 417.5q0 281 145 428t408 147q178 0 336 -59zM698 1509q107 0 107 -114q0 -115 -107 -115q-106 0 -106 115q0 114 106 114z"/>
		<glyph unicode="&#x10c;" d="M1124 201v-162q-146 -59 -358 -59q-309 0 -473 196t-164 557q0 346 179 548t489 202q220 0 383 -86l-78 -156q-154 78 -305 78q-215 0 -343 -158.5t-128 -429.5q0 -287 120 -437.5t351 -150.5q130 0 327 58zM1100 1880l-59 -67q-141 -158 -176 -234h-193q-35 76 -176 234 l-59 67v27h120q82 -54 211 -187q122 128 211 187h121v-27z"/>
		<glyph unicode="&#x10d;" d="M1061 1059l-62 -158q-150 57 -268 57q-371 0 -371 -413q0 -406 361 -406q157 0 321 62v-160q-134 -61 -329 -61q-257 0 -399 145.5t-142 417.5q0 281 145 428t408 147q178 0 336 -59zM1038 1542l-59 -67q-141 -158 -176 -234h-193q-35 76 -176 234l-59 67v27h120 q82 -54 211 -187q122 128 211 187h121v-27z"/>
		<glyph unicode="&#x10e;" d="M135 0v1462h342q317 0 493.5 -189t176.5 -528q0 -361 -183 -553t-528 -192h-301zM322 1303v-1143h96q532 0 532 579q0 564 -493 564h-135zM937 1880l-59 -67q-141 -158 -176 -234h-193q-35 76 -176 234l-59 67v27h120q82 -54 211 -187q122 128 211 187h121v-27z"/>
		<glyph unicode="&#x10f;" d="M839 147h-8q-113 -167 -322 -167q-201 0 -315.5 149.5t-114.5 417.5q0 270 115 420.5t315 150.5q206 0 322 -160h12q-12 129 -12 162v436h182v-1556h-147zM831 506v41q0 227 -69.5 323.5t-221.5 96.5q-272 0 -272 -422q0 -414 274 -414q152 0 218.5 88.5t70.5 286.5z M1074 1255l26 107q26 116 35 194h180v-20q0 -14 -42 -113t-103 -194h-96v26z"/>
		<glyph unicode="&#x110;" d="M135 0v659h-135v162h135v641h342q317 0 493.5 -189t176.5 -528q0 -361 -183 -553t-528 -192h-301zM322 1303v-482h380v-162h-380v-499h96q532 0 532 579q0 564 -493 564h-135z"/>
		<glyph unicode="&#x111;" d="M897 147h-8q-113 -167 -322 -167q-201 0 -315.5 144t-114.5 402q0 260 115 405.5t315 145.5q208 0 322 -159h12q-12 126 -12 161v158h-379v137h379v182h182v-182h156v-137h-156v-1237h-147zM889 487v39q0 216 -69.5 308t-221.5 92q-272 0 -272 -402q0 -393 274 -393 q151 0 218 83t71 273z"/>
		<glyph unicode="&#x112;" d="M1059 0h-842v1462h842v-164h-656v-452h617v-162h-617v-520h656v-164zM336 1729h575v-150h-575v150z"/>
		<glyph unicode="&#x113;" d="M1096 514h-774q8 -375 344 -375q195 0 370 76v-160q-166 -75 -364 -75q-245 0 -392 149.5t-147 411.5q0 266 135.5 421.5t362.5 155.5q212 0 338.5 -134t126.5 -357v-113zM326 662h573q0 305 -272 305q-275 0 -301 -305zM346 1391h575v-150h-575v150z"/>
		<glyph unicode="&#x114;" d="M1059 0h-842v1462h842v-164h-656v-452h617v-162h-617v-520h656v-164zM944 1856q-9 -127 -89 -202t-216 -75q-280 0 -297 277h109q7 -76 46.5 -100.5t143.5 -24.5q181 0 191 125h112z"/>
		<glyph unicode="&#x115;" d="M1096 514h-774q8 -375 344 -375q195 0 370 76v-160q-166 -75 -364 -75q-245 0 -392 149.5t-147 411.5q0 266 135.5 421.5t362.5 155.5q212 0 338.5 -134t126.5 -357v-113zM326 662h573q0 305 -272 305q-275 0 -301 -305zM931 1518q-9 -127 -89 -202t-216 -75 q-280 0 -297 277h109q7 -76 46.5 -100.5t143.5 -24.5q181 0 191 125h112z"/>
		<glyph unicode="&#x116;" d="M1059 0h-842v1462h842v-164h-656v-452h617v-162h-617v-520h656v-164zM649 1818q107 0 107 -114q0 -115 -107 -115q-106 0 -106 115q0 114 106 114z"/>
		<glyph unicode="&#x117;" d="M1096 514h-774q8 -375 344 -375q195 0 370 76v-160q-166 -75 -364 -75q-245 0 -392 149.5t-147 411.5q0 266 135.5 421.5t362.5 155.5q212 0 338.5 -134t126.5 -357v-113zM326 662h573q0 305 -272 305q-275 0 -301 -305zM637 1509q107 0 107 -114q0 -115 -107 -115 q-106 0 -106 115q0 114 106 114z"/>
		<glyph unicode="&#x118;" d="M1059 0h-842v1462h842v-164h-656v-452h617v-162h-617v-520h656v-164zM1020 -319v-113q-73 -23 -156 -23q-119 0 -182 54.5t-63 148.5q0 144 190 252h131q-170 -125 -170 -238q0 -96 127 -96q66 0 123 15z"/>
		<glyph unicode="&#x119;" d="M1096 514h-774q8 -375 344 -375q195 0 370 76v-160q-166 -75 -364 -75q-245 0 -392 149.5t-147 411.5q0 266 135.5 421.5t362.5 155.5q212 0 338.5 -134t126.5 -357v-113zM326 662h573q0 305 -272 305q-275 0 -301 -305zM1042 -288v-113q-73 -23 -156 -23 q-119 0 -182 54.5t-63 148.5q0 144 190 252h131q-170 -125 -170 -238q0 -96 127 -96q66 0 123 15z"/>
		<glyph unicode="&#x11a;" d="M1059 0h-842v1462h842v-164h-656v-452h617v-162h-617v-520h656v-164zM981 1880l-59 -67q-141 -158 -176 -234h-193q-35 76 -176 234l-59 67v27h120q82 -54 211 -187q122 128 211 187h121v-27z"/>
		<glyph unicode="&#x11b;" d="M1096 514h-774q8 -375 344 -375q195 0 370 76v-160q-166 -75 -364 -75q-245 0 -392 149.5t-147 411.5q0 266 135.5 421.5t362.5 155.5q212 0 338.5 -134t126.5 -357v-113zM326 662h573q0 305 -272 305q-275 0 -301 -305zM971 1542l-59 -67q-141 -158 -176 -234h-193 q-35 76 -176 234l-59 67v27h120q82 -54 211 -187q122 128 211 187h121v-27z"/>
		<glyph unicode="&#x11c;" d="M672 772h422v-717q-195 -75 -420 -75q-262 0 -409.5 199.5t-147.5 553.5q0 351 162 550.5t446 199.5q192 0 346 -86l-72 -162q-146 84 -280 84q-192 0 -299 -155.5t-107 -432.5q0 -588 394 -588q97 0 202 29v436h-237v164zM1026 1579h-121q-85 56 -211 186 q-133 -136 -211 -186h-120v27l59 67q139 155 176 234h193q37 -79 176 -234l59 -67v-27z"/>
		<glyph unicode="&#x11d;" d="M1126 1098v-113l-196 -27q65 -85 65 -213q0 -161 -106.5 -256.5t-296.5 -95.5q-55 0 -86 6q-100 -56 -100 -133q0 -84 161 -84h187q174 0 266 -77t92 -220q0 -377 -565 -377q-218 0 -331.5 80.5t-113.5 225.5q0 212 240 270q-96 47 -96 154q0 112 133 192 q-89 37 -140 122.5t-51 186.5q0 182 106.5 280.5t303.5 98.5q86 0 150 -20h378zM594 518q223 0 223 230q0 239 -225 239t-225 -242q0 -227 227 -227zM692 18h-188q-230 0 -230 -198q0 -174 271 -174q395 0 395 223q0 88 -50 118.5t-198 30.5zM937 1241h-121q-85 56 -211 186 q-133 -136 -211 -186h-120v27l59 67q139 155 176 234h193q37 -79 176 -234l59 -67v-27z"/>
		<glyph unicode="&#x11e;" d="M672 772h422v-717q-195 -75 -420 -75q-262 0 -409.5 199.5t-147.5 553.5q0 351 162 550.5t446 199.5q192 0 346 -86l-72 -162q-146 84 -280 84q-192 0 -299 -155.5t-107 -432.5q0 -588 394 -588q97 0 202 29v436h-237v164zM1013 1856q-9 -127 -89 -202t-216 -75 q-280 0 -297 277h109q7 -76 46.5 -100.5t143.5 -24.5q181 0 191 125h112z"/>
		<glyph unicode="&#x11f;" d="M1126 1098v-113l-196 -27q65 -85 65 -213q0 -161 -106.5 -256.5t-296.5 -95.5q-55 0 -86 6q-100 -56 -100 -133q0 -84 161 -84h187q174 0 266 -77t92 -220q0 -377 -565 -377q-218 0 -331.5 80.5t-113.5 225.5q0 212 240 270q-96 47 -96 154q0 112 133 192 q-89 37 -140 122.5t-51 186.5q0 182 106.5 280.5t303.5 98.5q86 0 150 -20h378zM594 518q223 0 223 230q0 239 -225 239t-225 -242q0 -227 227 -227zM692 18h-188q-230 0 -230 -198q0 -174 271 -174q395 0 395 223q0 88 -50 118.5t-198 30.5zM902 1518q-9 -127 -89 -202 t-216 -75q-280 0 -297 277h109q7 -76 46.5 -100.5t143.5 -24.5q181 0 191 125h112z"/>
		<glyph unicode="&#x120;" d="M672 772h422v-717q-195 -75 -420 -75q-262 0 -409.5 199.5t-147.5 553.5q0 351 162 550.5t446 199.5q192 0 346 -86l-72 -162q-146 84 -280 84q-192 0 -299 -155.5t-107 -432.5q0 -588 394 -588q97 0 202 29v436h-237v164zM723 1847q107 0 107 -114q0 -115 -107 -115 q-106 0 -106 115q0 114 106 114z"/>
		<glyph unicode="&#x121;" d="M1126 1098v-113l-196 -27q65 -85 65 -213q0 -161 -106.5 -256.5t-296.5 -95.5q-55 0 -86 6q-100 -56 -100 -133q0 -84 161 -84h187q174 0 266 -77t92 -220q0 -377 -565 -377q-218 0 -331.5 80.5t-113.5 225.5q0 212 240 270q-96 47 -96 154q0 112 133 192 q-89 37 -140 122.5t-51 186.5q0 182 106.5 280.5t303.5 98.5q86 0 150 -20h378zM594 518q223 0 223 230q0 239 -225 239t-225 -242q0 -227 227 -227zM692 18h-188q-230 0 -230 -198q0 -174 271 -174q395 0 395 223q0 88 -50 118.5t-198 30.5zM613 1509q107 0 107 -114 q0 -115 -107 -115q-106 0 -106 115q0 114 106 114z"/>
		<glyph unicode="&#x122;" d="M672 772h422v-717q-195 -75 -420 -75q-262 0 -409.5 199.5t-147.5 553.5q0 351 162 550.5t446 199.5q192 0 346 -86l-72 -162q-146 84 -280 84q-192 0 -299 -155.5t-107 -432.5q0 -588 394 -588q97 0 202 29v436h-237v164zM540 -426q62 140 84 301h178v-20 q0 -22 -48 -124t-115 -184h-99v27z"/>
		<glyph unicode="&#x123;" d="M1126 1098v-113l-196 -27q65 -85 65 -213q0 -161 -106.5 -256.5t-296.5 -95.5q-55 0 -86 6q-100 -56 -100 -133q0 -84 161 -84h187q174 0 266 -77t92 -220q0 -377 -565 -377q-218 0 -331.5 80.5t-113.5 225.5q0 212 240 270q-96 47 -96 154q0 112 133 192 q-89 37 -140 122.5t-51 186.5q0 182 106.5 280.5t303.5 98.5q86 0 150 -20h378zM594 518q223 0 223 230q0 239 -225 239t-225 -242q0 -227 227 -227zM692 18h-188q-230 0 -230 -198q0 -174 271 -174q395 0 395 223q0 88 -50 118.5t-198 30.5zM790 1542q-63 -153 -83 -301 h-179v21q0 17 45.5 117.5t118.5 189.5h98v-27z"/>
		<glyph unicode="&#x124;" d="M1094 0h-187v682h-585v-682h-187v1462h187v-616h585v616h187v-1462zM946 1579h-121q-85 56 -211 186q-133 -136 -211 -186h-120v27l59 67q139 155 176 234h193q37 -79 176 -234l59 -67v-27z"/>
		<glyph unicode="&#x125;" d="M887 0v707q0 260 -238 260q-307 0 -307 -398v-569h-182v1556h182v-462l-8 -144h10q103 168 336 168q389 0 389 -401v-717h-182zM960 1634h-121q-85 56 -211 186q-133 -136 -211 -186h-120v27l59 67q139 155 176 234h193q37 -79 176 -234l59 -67v-27z"/>
		<glyph unicode="&#x126;" d="M135 1219v243h187v-243h585v243h187v-243h135v-150h-135v-1069h-187v682h-585v-682h-187v1069h-135v150h135zM907 846v223h-585v-223h585z"/>
		<glyph unicode="&#x127;" d="M887 0v666q0 260 -236 260q-162 0 -235.5 -93.5t-73.5 -304.5v-528h-182v1237h-156v137h156v182h184v-182h418v-137h-420v-184l-10 -144h10q108 168 346 168q192 0 286.5 -95.5t94.5 -305.5v-676h-182z"/>
		<glyph unicode="&#x128;" d="M1001 0h-776v123l295 20v1176l-295 20v123h776v-123l-294 -20v-1176l294 -20v-123zM358 1579h-104q25 264 211 264q58 0 161 -56q102 -56 136 -56q80 0 106 114h105q-27 -264 -211 -264q-57 0 -157 57q-100 56 -140 56q-82 0 -107 -115z"/>
		<glyph unicode="&#x129;" d="M541 954l-269 21v123h451v-955l352 -20v-123h-878v123l344 20v811zM355 1241h-104q25 264 211 264q58 0 161 -56q102 -56 136 -56q80 0 106 114h105q-27 -264 -211 -264q-57 0 -157 57q-100 56 -140 56q-82 0 -107 -115z"/>
		<glyph unicode="&#x12a;" d="M1001 0h-776v123l295 20v1176l-295 20v123h776v-123l-294 -20v-1176l294 -20v-123zM328 1729h575v-150h-575v150z"/>
		<glyph unicode="&#x12b;" d="M541 954l-269 21v123h451v-955l352 -20v-123h-878v123l344 20v811zM326 1391h575v-150h-575v150z"/>
		<glyph unicode="&#x12c;" d="M1001 0h-776v123l295 20v1176l-295 20v123h776v-123l-294 -20v-1176l294 -20v-123zM915 1856q-9 -127 -89 -202t-216 -75q-280 0 -297 277h109q7 -76 46.5 -100.5t143.5 -24.5q181 0 191 125h112z"/>
		<glyph unicode="&#x12d;" d="M541 954l-269 21v123h451v-955l352 -20v-123h-878v123l344 20v811zM940 1518q-9 -127 -89 -202t-216 -75q-280 0 -297 277h109q7 -76 46.5 -100.5t143.5 -24.5q181 0 191 125h112z"/>
		<glyph unicode="&#x12e;" d="M1001 0h-776v123l295 20v1176l-295 20v123h776v-123l-294 -20v-1176l294 -20v-123zM823 -319v-113q-73 -23 -156 -23q-119 0 -182 54.5t-63 148.5q0 144 190 252h131q-170 -125 -170 -238q0 -96 127 -96q66 0 123 15z"/>
		<glyph unicode="&#x12f;" d="M541 954l-269 21v123h451v-955l352 -20v-123h-878v123l344 20v811zM633 1550q106 0 106 -114q0 -58 -31.5 -86.5t-74.5 -28.5q-107 0 -107 115q0 114 107 114zM840 -319v-113q-73 -23 -156 -23q-119 0 -182 54.5t-63 148.5q0 144 190 252h131q-170 -125 -170 -238 q0 -96 127 -96q66 0 123 15z"/>
		<glyph unicode="&#x130;" d="M1001 0h-776v123l295 20v1176l-295 20v123h776v-123l-294 -20v-1176l294 -20v-123zM614 1847q107 0 107 -114q0 -115 -107 -115q-106 0 -106 115q0 114 106 114z"/>
		<glyph unicode="&#x131;" d="M541 954l-269 21v123h451v-955l352 -20v-123h-878v123l344 20v811z"/>
		<glyph unicode="&#x132;" d="M156 0v1462h186v-1462h-186zM492 23v163q93 -45 186 -45q194 0 194 283v1038h187v-1026q0 -456 -365 -456q-133 0 -202 43z"/>
		<glyph unicode="&#x133;" d="M295 1550q106 0 106 -114q0 -58 -31.5 -86.5t-74.5 -28.5q-107 0 -107 115q0 114 107 114zM928 1550q106 0 106 -114q0 -58 -31.5 -86.5t-74.5 -28.5q-107 0 -107 115q0 114 107 114zM203 1098h182v-1098h-182v1098zM502 -457v154q88 -39 190 -39q164 0 164 215v1081 l-215 21v123h397v-1215q0 -182 -85 -278.5t-236 -96.5q-123 0 -215 35z"/>
		<glyph unicode="&#x134;" d="M137 39v166q162 -62 309 -62q161 0 254 79.5t93 226.5v1013h186v-1011q0 -216 -140.5 -343.5t-377.5 -127.5q-217 0 -324 59zM1214 1579h-121q-85 56 -211 186q-133 -136 -211 -186h-120v27l59 67q139 155 176 234h193q37 -79 176 -234l59 -67v-27z"/>
		<glyph unicode="&#x135;" d="M966 1241h-121q-85 56 -211 186q-133 -136 -211 -186h-120v27l59 67q139 155 176 234h193q37 -79 176 -234l59 -67v-27zM135 -457v154q134 -39 289 -39q117 0 182.5 57t65.5 158v1081l-420 21v123h602v-1215q0 -180 -113 -277.5t-319 -97.5q-164 0 -287 35z"/>
		<glyph unicode="&#x136;" d="M1198 0h-211l-450 698l-140 -114v-584h-186v1462h186v-731l121 168l453 563h209l-521 -637zM510 -426q62 140 84 301h178v-20q0 -22 -48 -124t-115 -184h-99v27z"/>
		<glyph unicode="&#x137;" d="M383 553l135 152l395 393h222l-494 -475l522 -623h-213l-426 504l-129 -82v-422h-180v1556h180v-714l-16 -289h4zM485 -426q62 140 84 301h178v-20q0 -22 -48 -124t-115 -184h-99v27z"/>
		<glyph unicode="&#x138;" d="M383 508l137 166l402 424h213l-494 -510l522 -588h-213l-426 469l-129 -82v-387h-180v1098h180v-291l-16 -299h4z"/>
		<glyph unicode="&#x139;" d="M233 0v1462h187v-1296h635v-166h-822zM263 1606q94 133 174 301h219v-21q-112 -173 -272 -307h-121v27z"/>
		<glyph unicode="&#x13a;" d="M532 1413l-268 21v122h451v-1413l352 -20v-123h-879v123l344 20v1270zM496 1663q94 133 174 301h219v-21q-112 -173 -272 -307h-121v27z"/>
		<glyph unicode="&#x13b;" d="M233 0v1462h187v-1296h635v-166h-822zM491 -426q62 140 84 301h178v-20q0 -22 -48 -124t-115 -184h-99v27z"/>
		<glyph unicode="&#x13c;" d="M532 1413l-268 21v122h451v-1413l352 -20v-123h-879v123l344 20v1270zM461 -426q62 140 84 301h178v-20q0 -22 -48 -124t-115 -184h-99v27z"/>
		<glyph unicode="&#x13d;" d="M233 0v1462h187v-1296h635v-166h-822zM750 1162l26 107q26 116 35 194h180v-20q0 -14 -42 -113t-103 -194h-96v26z"/>
		<glyph unicode="&#x13e;" d="M532 1413l-268 21v122h451v-1413l352 -20v-123h-879v123l344 20v1270zM865 1255l26 107q26 116 35 194h180v-20q0 -14 -42 -113t-103 -194h-96v26z"/>
		<glyph unicode="&#x13f;" d="M233 0v1462h187v-1296h635v-166h-822zM856 889q107 0 107 -114q0 -115 -107 -115q-106 0 -106 115q0 114 106 114z"/>
		<glyph unicode="&#x140;" d="M532 1413l-268 21v122h451v-1413l352 -20v-123h-879v123l344 20v1270zM972 797q107 0 107 -114q0 -115 -107 -115q-106 0 -106 115q0 114 106 114z"/>
		<glyph unicode="&#x141;" d="M270 0v492l-125 -78l-73 125l198 125v798h187v-680l299 189l78 -125l-377 -238v-442h635v-166h-822z"/>
		<glyph unicode="&#x142;" d="M532 592l-141 -92l-78 121l219 143v649l-268 21v122h451v-673l164 108l77 -121l-241 -159v-568l352 -20v-123h-879v123l344 20v449z"/>
		<glyph unicode="&#x143;" d="M1092 0h-215l-580 1210h-8q18 -277 18 -417v-793h-172v1462h213l578 -1204h6q-14 303 -14 404v800h174v-1462zM516 1606q94 133 174 301h219v-21q-112 -173 -272 -307h-121v27z"/>
		<glyph unicode="&#x144;" d="M887 0v707q0 260 -238 260q-307 0 -307 -398v-569h-182v1098h147l27 -148h10q103 168 336 168q389 0 389 -401v-717h-182zM529 1268q94 133 174 301h219v-21q-112 -173 -272 -307h-121v27z"/>
		<glyph unicode="&#x145;" d="M1092 0h-215l-580 1210h-8q18 -277 18 -417v-793h-172v1462h213l578 -1204h6q-14 303 -14 404v800h174v-1462zM433 -426q62 140 84 301h178v-20q0 -22 -48 -124t-115 -184h-99v27z"/>
		<glyph unicode="&#x146;" d="M887 0v707q0 260 -238 260q-307 0 -307 -398v-569h-182v1098h147l27 -148h10q103 168 336 168q389 0 389 -401v-717h-182zM455 -426q62 140 84 301h178v-20q0 -22 -48 -124t-115 -184h-99v27z"/>
		<glyph unicode="&#x147;" d="M1092 0h-215l-580 1210h-8q18 -277 18 -417v-793h-172v1462h213l578 -1204h6q-14 303 -14 404v800h174v-1462zM943 1880l-59 -67q-141 -158 -176 -234h-193q-35 76 -176 234l-59 67v27h120q82 -54 211 -187q122 128 211 187h121v-27z"/>
		<glyph unicode="&#x148;" d="M887 0v707q0 260 -238 260q-307 0 -307 -398v-569h-182v1098h147l27 -148h10q103 168 336 168q389 0 389 -401v-717h-182zM958 1542l-59 -67q-141 -158 -176 -234h-193q-35 76 -176 234l-59 67v27h120q82 -54 211 -187q122 128 211 187h121v-27z"/>
		<glyph unicode="&#x149;" d="M283 1462l14 -22q-50 -197 -176 -479h-137q60 242 100 501h199zM948 0v707q0 260 -219 260q-285 0 -285 -398v-569h-182v1098h148l26 -148h10q42 78 128.5 123t189.5 45q366 0 366 -401v-717h-182z"/>
		<glyph unicode="&#x14a;" d="M297 1210h-8q18 -277 18 -417v-793h-172v1462h213l578 -1128h10q-18 274 -18 403v725h174v-1442q0 -198 -100 -303.5t-287 -105.5q-94 0 -156 24v160q77 -20 158 -20q211 0 211 225z"/>
		<glyph unicode="&#x14b;" d="M342 0h-182v1098h147l27 -148h10q103 168 336 168q389 0 389 -401v-875q0 -334 -291 -334q-81 0 -133 25v148q54 -21 115 -21q127 0 127 170v877q0 260 -238 260q-307 0 -307 -398v-569z"/>
		<glyph unicode="&#x14c;" d="M616 -20q-532 0 -532 755q0 750 534 750q256 0 392.5 -195.5t136.5 -556.5t-138 -557t-393 -196zM616 143q173 0 253.5 145t80.5 445q0 303 -81.5 445.5t-250.5 142.5q-337 0 -337 -588q0 -590 335 -590zM330 1729h575v-150h-575v150z"/>
		<glyph unicode="&#x14d;" d="M610 -20q-216 0 -355.5 155.5t-139.5 415.5q0 263 135.5 415t365.5 152q218 0 357 -155t139 -412q0 -265 -137 -418t-365 -153zM614 131q310 0 310 420q0 416 -312 416q-309 0 -309 -416q0 -420 311 -420zM326 1391h575v-150h-575v150z"/>
		<glyph unicode="&#x14e;" d="M616 -20q-532 0 -532 755q0 750 534 750q256 0 392.5 -195.5t136.5 -556.5t-138 -557t-393 -196zM616 143q173 0 253.5 145t80.5 445q0 303 -81.5 445.5t-250.5 142.5q-337 0 -337 -588q0 -590 335 -590zM914 1856q-9 -127 -89 -202t-216 -75q-280 0 -297 277h109 q7 -76 46.5 -100.5t143.5 -24.5q181 0 191 125h112z"/>
		<glyph unicode="&#x14f;" d="M610 -20q-216 0 -355.5 155.5t-139.5 415.5q0 263 135.5 415t365.5 152q218 0 357 -155t139 -412q0 -265 -137 -418t-365 -153zM614 131q310 0 310 420q0 416 -312 416q-309 0 -309 -416q0 -420 311 -420zM915 1518q-9 -127 -89 -202t-216 -75q-280 0 -297 277h109 q7 -76 46.5 -100.5t143.5 -24.5q181 0 191 125h112z"/>
		<glyph unicode="&#x150;" d="M616 -20q-532 0 -532 755q0 750 534 750q256 0 392.5 -195.5t136.5 -556.5t-138 -557t-393 -196zM616 143q173 0 253.5 145t80.5 445q0 303 -81.5 445.5t-250.5 142.5q-337 0 -337 -588q0 -590 335 -590zM326 1606q94 133 174 301h198v-21q-112 -173 -272 -307h-100v27z M688 1606q87 118 174 301h199v-21q-112 -173 -272 -307h-101v27z"/>
		<glyph unicode="&#x151;" d="M610 -20q-216 0 -355.5 155.5t-139.5 415.5q0 263 135.5 415t365.5 152q218 0 357 -155t139 -412q0 -265 -137 -418t-365 -153zM614 131q310 0 310 420q0 416 -312 416q-309 0 -309 -416q0 -420 311 -420zM328 1268q94 133 174 301h198v-21q-112 -173 -272 -307h-100v27z M690 1268q87 118 174 301h199v-21q-112 -173 -272 -307h-101v27z"/>
		<glyph unicode="&#x152;" d="M1227 0h-574l-48 -10q-51 -10 -97 -10q-488 0 -488 755q0 750 512 750q82 0 154 -23h541v-164h-398v-452h359v-162h-359v-520h398v-164zM651 176v1112q-58 33 -131 33q-311 0 -311 -588q0 -590 309 -590q70 0 133 33z"/>
		<glyph unicode="&#x153;" d="M651 201q-88 -221 -266 -221q-146 0 -237 153.5t-91 417.5q0 268 88 417.5t242 149.5q171 0 260 -217q84 217 242 217q131 0 208 -133.5t77 -357.5v-113h-439q3 -375 189 -375q108 0 204 76v-162q-94 -73 -217 -73q-87 0 -158.5 59t-101.5 162zM397 131q168 0 168 410 q0 426 -170 426q-90 0 -129 -103t-39 -313q0 -211 39.5 -315.5t130.5 -104.5zM997 662q0 305 -123 305q-125 0 -137 -305h260z"/>
		<glyph unicode="&#x154;" d="M373 604v-604h-187v1462h357q520 0 520 -415q0 -287 -289 -392l397 -655h-219l-350 604h-229zM373 762h164q171 0 252 66t81 210q0 141 -80 203t-258 62h-159v-541zM447 1606q94 133 174 301h219v-21q-112 -173 -272 -307h-121v27z"/>
		<glyph unicode="&#x155;" d="M1059 1073l-49 -166q-123 45 -224 45q-163 0 -251.5 -92.5t-88.5 -267.5v-592h-182v1098h148l22 -201h8q76 119 163 170t214 51q118 0 240 -45zM510 1268q94 133 174 301h219v-21q-112 -173 -272 -307h-121v27z"/>
		<glyph unicode="&#x156;" d="M373 604v-604h-187v1462h357q520 0 520 -415q0 -287 -289 -392l397 -655h-219l-350 604h-229zM373 762h164q171 0 252 66t81 210q0 141 -80 203t-258 62h-159v-541zM480 -426q62 140 84 301h178v-20q0 -22 -48 -124t-115 -184h-99v27z"/>
		<glyph unicode="&#x157;" d="M1059 1073l-49 -166q-123 45 -224 45q-163 0 -251.5 -92.5t-88.5 -267.5v-592h-182v1098h148l22 -201h8q76 119 163 170t214 51q118 0 240 -45zM187 -426q62 140 84 301h178v-20q0 -22 -48 -124t-115 -184h-99v27z"/>
		<glyph unicode="&#x158;" d="M373 604v-604h-187v1462h357q520 0 520 -415q0 -287 -289 -392l397 -655h-219l-350 604h-229zM373 762h164q171 0 252 66t81 210q0 141 -80 203t-258 62h-159v-541zM916 1880l-59 -67q-141 -158 -176 -234h-193q-35 76 -176 234l-59 67v27h120q82 -54 211 -187 q122 128 211 187h121v-27z"/>
		<glyph unicode="&#x159;" d="M1059 1073l-49 -166q-123 45 -224 45q-163 0 -251.5 -92.5t-88.5 -267.5v-592h-182v1098h148l22 -201h8q76 119 163 170t214 51q118 0 240 -45zM958 1542l-59 -67q-141 -158 -176 -234h-193q-35 76 -176 234l-59 67v27h120q82 -54 211 -187q122 128 211 187h121v-27z"/>
		<glyph unicode="&#x15a;" d="M141 49v178q211 -86 414 -86q350 0 350 240q0 104 -70.5 160t-285.5 133q-208 73 -298.5 174.5t-90.5 263.5q0 174 128.5 272.5t352.5 98.5q229 0 416 -78l-64 -164q-193 78 -360 78q-293 0 -293 -209q0 -102 65.5 -164t270.5 -133q246 -88 328.5 -181.5t82.5 -240.5 q0 -192 -138.5 -301.5t-393.5 -109.5q-265 0 -414 69zM514 1606q94 133 174 301h219v-21q-112 -173 -272 -307h-121v27z"/>
		<glyph unicode="&#x15b;" d="M203 49v166q193 -86 370 -86q275 0 275 162q0 57 -49 99t-226 106q-233 87 -293.5 159.5t-60.5 171.5q0 136 111.5 213.5t308.5 77.5q198 0 369 -74l-60 -149q-182 72 -319 72q-236 0 -236 -133q0 -61 50.5 -97.5t232.5 -101.5q211 -77 280.5 -151.5t69.5 -182.5 q0 -150 -117 -235.5t-331 -85.5q-248 0 -375 69zM512 1268q94 133 174 301h219v-21q-112 -173 -272 -307h-121v27z"/>
		<glyph unicode="&#x15c;" d="M141 49v178q211 -86 414 -86q350 0 350 240q0 104 -70.5 160t-285.5 133q-208 73 -298.5 174.5t-90.5 263.5q0 174 128.5 272.5t352.5 98.5q229 0 416 -78l-64 -164q-193 78 -360 78q-293 0 -293 -209q0 -102 65.5 -164t270.5 -133q246 -88 328.5 -181.5t82.5 -240.5 q0 -192 -138.5 -301.5t-393.5 -109.5q-265 0 -414 69zM966 1579h-121q-85 56 -211 186q-133 -136 -211 -186h-120v27l59 67q139 155 176 234h193q37 -79 176 -234l59 -67v-27z"/>
		<glyph unicode="&#x15d;" d="M203 49v166q193 -86 370 -86q275 0 275 162q0 57 -49 99t-226 106q-233 87 -293.5 159.5t-60.5 171.5q0 136 111.5 213.5t308.5 77.5q198 0 369 -74l-60 -149q-182 72 -319 72q-236 0 -236 -133q0 -61 50.5 -97.5t232.5 -101.5q211 -77 280.5 -151.5t69.5 -182.5 q0 -150 -117 -235.5t-331 -85.5q-248 0 -375 69zM969 1241h-121q-85 56 -211 186q-133 -136 -211 -186h-120v27l59 67q139 155 176 234h193q37 -79 176 -234l59 -67v-27z"/>
		<glyph unicode="&#x15e;" d="M141 49v178q211 -86 414 -86q350 0 350 240q0 104 -70.5 160t-285.5 133q-208 73 -298.5 174.5t-90.5 263.5q0 174 128.5 272.5t352.5 98.5q229 0 416 -78l-64 -164q-193 78 -360 78q-293 0 -293 -209q0 -102 65.5 -164t270.5 -133q246 -88 328.5 -181.5t82.5 -240.5 q0 -192 -138.5 -301.5t-393.5 -109.5q-265 0 -414 69zM406 -483v108q33 -6 80 -6q151 0 151 92q0 74 -172 113l91 176h120l-57 -115q160 -37 160 -172q0 -205 -291 -205q-34 0 -82 9z"/>
		<glyph unicode="&#x15f;" d="M203 49v166q193 -86 370 -86q275 0 275 162q0 57 -49 99t-226 106q-233 87 -293.5 159.5t-60.5 171.5q0 136 111.5 213.5t308.5 77.5q198 0 369 -74l-60 -149q-182 72 -319 72q-236 0 -236 -133q0 -61 50.5 -97.5t232.5 -101.5q211 -77 280.5 -151.5t69.5 -182.5 q0 -150 -117 -235.5t-331 -85.5q-248 0 -375 69zM419 -483v108q33 -6 80 -6q151 0 151 92q0 74 -172 113l91 176h120l-57 -115q160 -37 160 -172q0 -205 -291 -205q-34 0 -82 9z"/>
		<glyph unicode="&#x160;" d="M141 49v178q211 -86 414 -86q350 0 350 240q0 104 -70.5 160t-285.5 133q-208 73 -298.5 174.5t-90.5 263.5q0 174 128.5 272.5t352.5 98.5q229 0 416 -78l-64 -164q-193 78 -360 78q-293 0 -293 -209q0 -102 65.5 -164t270.5 -133q246 -88 328.5 -181.5t82.5 -240.5 q0 -192 -138.5 -301.5t-393.5 -109.5q-265 0 -414 69zM977 1880l-59 -67q-141 -158 -176 -234h-193q-35 76 -176 234l-59 67v27h120q82 -54 211 -187q122 128 211 187h121v-27z"/>
		<glyph unicode="&#x161;" d="M203 49v166q193 -86 370 -86q275 0 275 162q0 57 -49 99t-226 106q-233 87 -293.5 159.5t-60.5 171.5q0 136 111.5 213.5t308.5 77.5q198 0 369 -74l-60 -149q-182 72 -319 72q-236 0 -236 -133q0 -61 50.5 -97.5t232.5 -101.5q211 -77 280.5 -151.5t69.5 -182.5 q0 -150 -117 -235.5t-331 -85.5q-248 0 -375 69zM956 1542l-59 -67q-141 -158 -176 -234h-193q-35 76 -176 234l-59 67v27h120q82 -54 211 -187q122 128 211 187h121v-27z"/>
		<glyph unicode="&#x162;" d="M707 0h-187v1298h-418v164h1022v-164h-417v-1298zM449 -426q62 140 84 301h178v-20q0 -22 -48 -124t-115 -184h-99v27z"/>
		<glyph unicode="&#x163;" d="M1020 150v-138q-130 -32 -252 -32q-362 0 -362 344v637h-267v94l267 49l77 287h105v-293h438v-137h-438v-637q0 -195 192 -195q93 0 240 21zM489 -426q62 140 84 301h178v-20q0 -22 -48 -124t-115 -184h-99v27z"/>
		<glyph unicode="&#x164;" d="M707 0h-187v1298h-418v164h1022v-164h-417v-1298zM945 1880l-59 -67q-141 -158 -176 -234h-193q-35 76 -176 234l-59 67v27h120q82 -54 211 -187q122 128 211 187h121v-27z"/>
		<glyph unicode="&#x165;" d="M1020 150v-138q-130 -32 -252 -32q-362 0 -362 344v637h-267v94l267 49l77 287h105v-293h438v-137h-438v-637q0 -195 192 -195q93 0 240 21zM799 1255l26 107q26 116 35 194h180v-20q0 -14 -42 -113t-103 -194h-96v26z"/>
		<glyph unicode="&#x166;" d="M520 819v479h-418v164h1022v-164h-417v-479h294v-149h-294v-670h-187v670h-297v149h297z"/>
		<glyph unicode="&#x167;" d="M1020 150v-138q-130 -32 -252 -32q-362 0 -362 344v251h-162v138h162v248h-267v94l267 49l77 287h105v-293h438v-137h-438v-248h307v-138h-307v-251q0 -195 192 -195q93 0 240 21z"/>
		<glyph unicode="&#x168;" d="M1104 1464v-948q0 -260 -126 -398t-370 -138q-483 0 -483 540v942h186v-932q0 -387 307 -387q295 0 300 389v932h186zM364 1579h-104q25 264 211 264q58 0 161 -56q102 -56 136 -56q80 0 106 114h105q-27 -264 -211 -264q-57 0 -157 57q-100 56 -140 56q-82 0 -107 -115z "/>
		<glyph unicode="&#x169;" d="M922 0l-27 147h-10q-105 -167 -334 -167q-391 0 -391 401v717h182v-707q0 -260 236 -260q161 0 235 92.5t74 304.5v570h182v-1098h-147zM360 1241h-104q25 264 211 264q58 0 161 -56q102 -56 136 -56q80 0 106 114h105q-27 -264 -211 -264q-57 0 -157 57q-100 56 -140 56 q-82 0 -107 -115z"/>
		<glyph unicode="&#x16a;" d="M1104 1464v-948q0 -260 -126 -398t-370 -138q-483 0 -483 540v942h186v-932q0 -387 307 -387q295 0 300 389v932h186zM326 1729h575v-150h-575v150z"/>
		<glyph unicode="&#x16b;" d="M922 0l-27 147h-10q-105 -167 -334 -167q-391 0 -391 401v717h182v-707q0 -260 236 -260q161 0 235 92.5t74 304.5v570h182v-1098h-147zM328 1391h575v-150h-575v150z"/>
		<glyph unicode="&#x16c;" d="M1104 1464v-948q0 -260 -126 -398t-370 -138q-483 0 -483 540v942h186v-932q0 -387 307 -387q295 0 300 389v932h186zM914 1856q-9 -127 -89 -202t-216 -75q-280 0 -297 277h109q7 -76 46.5 -100.5t143.5 -24.5q181 0 191 125h112z"/>
		<glyph unicode="&#x16d;" d="M922 0l-27 147h-10q-105 -167 -334 -167q-391 0 -391 401v717h182v-707q0 -260 236 -260q161 0 235 92.5t74 304.5v570h182v-1098h-147zM915 1518q-9 -127 -89 -202t-216 -75q-280 0 -297 277h109q7 -76 46.5 -100.5t143.5 -24.5q181 0 191 125h112z"/>
		<glyph unicode="&#x16e;" d="M1104 1464v-948q0 -260 -126 -398t-370 -138q-483 0 -483 540v942h186v-932q0 -387 307 -387q295 0 300 389v932h186zM612 1579q-102 0 -162.5 58t-60.5 157t60.5 157t162.5 58q101 0 165.5 -59t64.5 -154q0 -98 -63.5 -157.5t-166.5 -59.5zM612 1907q-49 0 -80.5 -30 t-31.5 -83q0 -113 112 -113q50 0 81.5 30t31.5 83t-31.5 83t-81.5 30z"/>
		<glyph unicode="&#x16f;" d="M922 0l-27 147h-10q-105 -167 -334 -167q-391 0 -391 401v717h182v-707q0 -260 236 -260q161 0 235 92.5t74 304.5v570h182v-1098h-147zM607 1241q-102 0 -162.5 58t-60.5 157t60.5 157t162.5 58q101 0 165.5 -59t64.5 -154q0 -98 -63.5 -157.5t-166.5 -59.5zM607 1569 q-49 0 -80.5 -30t-31.5 -83q0 -113 112 -113q50 0 81.5 30t31.5 83t-31.5 83t-81.5 30z"/>
		<glyph unicode="&#x170;" d="M1104 1464v-948q0 -260 -126 -398t-370 -138q-483 0 -483 540v942h186v-932q0 -387 307 -387q295 0 300 389v932h186zM322 1606q94 133 174 301h198v-21q-112 -173 -272 -307h-100v27zM684 1606q87 118 174 301h199v-21q-112 -173 -272 -307h-101v27z"/>
		<glyph unicode="&#x171;" d="M922 0l-27 147h-10q-105 -167 -334 -167q-391 0 -391 401v717h182v-707q0 -260 236 -260q161 0 235 92.5t74 304.5v570h182v-1098h-147zM326 1268q94 133 174 301h198v-21q-112 -173 -272 -307h-100v27zM688 1268q87 118 174 301h199v-21q-112 -173 -272 -307h-101v27z "/>
		<glyph unicode="&#x172;" d="M1104 1464v-948q0 -260 -126 -398t-370 -138q-483 0 -483 540v942h186v-932q0 -387 307 -387q295 0 300 389v932h186zM842 -319v-113q-73 -23 -156 -23q-119 0 -182 54.5t-63 148.5q0 144 190 252h131q-170 -125 -170 -238q0 -96 127 -96q66 0 123 15z"/>
		<glyph unicode="&#x173;" d="M922 0l-27 147h-10q-105 -167 -334 -167q-391 0 -391 401v717h182v-707q0 -260 236 -260q161 0 235 92.5t74 304.5v570h182v-1098h-147zM1124 -319v-113q-73 -23 -156 -23q-119 0 -182 54.5t-63 148.5q0 144 190 252h131q-170 -125 -170 -238q0 -96 127 -96q66 0 123 15z "/>
		<glyph unicode="&#x174;" d="M528 1008h177l145 -521q61 -219 72 -307q2 53 65 619l70 663h170l-187 -1462h-190l-168 580q-40 138 -66 282q-32 -173 -65 -284l-156 -578h-190l-203 1462h170l88 -663q23 -176 40 -378t17 -241q24 151 70 312zM948 1579h-121q-85 56 -211 186q-133 -136 -211 -186h-120 v27l59 67q139 155 176 234h193q37 -79 176 -234l59 -67v-27z"/>
		<glyph unicode="&#x175;" d="M813 0l-131 596l-68 330h-6l-65 -334l-135 -592h-189l-223 1098h162l98 -543q34 -186 57 -393h6q31 185 68 358l133 578h193l127 -578q43 -195 67 -358h6q31 242 60 393l102 543h158l-225 -1098h-195zM943 1241h-121q-85 56 -211 186q-133 -136 -211 -186h-120v27l59 67 q139 155 176 234h193q37 -79 176 -234l59 -67v-27z"/>
		<glyph unicode="&#x176;" d="M612 723l381 739h201l-487 -893v-569h-187v559l-487 903h203zM945 1579h-121q-85 56 -211 186q-133 -136 -211 -186h-120v27l59 67q139 155 176 234h193q37 -79 176 -234l59 -67v-27z"/>
		<glyph unicode="&#x177;" d="M82 1098h188l262 -654q82 -205 89 -290h6q23 112 90 292l239 652h189l-475 -1241q-67 -174 -156 -261.5t-246 -87.5q-86 0 -168 17v145q62 -12 136 -12q96 0 149.5 41t95.5 141l58 150zM948 1241h-121q-85 56 -211 186q-133 -136 -211 -186h-120v27l59 67 q139 155 176 234h193q37 -79 176 -234l59 -67v-27z"/>
		<glyph unicode="&#x178;" d="M612 723l381 739h201l-487 -893v-569h-187v559l-487 903h203zM428 1835q96 0 96 -102q0 -103 -96 -103t-96 103q0 102 96 102zM803 1835q96 0 96 -102q0 -103 -96 -103t-96 103q0 102 96 102z"/>
		<glyph unicode="&#x179;" d="M1124 0h-1022v145l793 1151h-772v166h981v-145l-793 -1151h813v-166zM475 1606q94 133 174 301h219v-21q-112 -173 -272 -307h-121v27z"/>
		<glyph unicode="&#x17a;" d="M1044 0h-862v125l660 836h-627v137h811v-146l-647 -815h665v-137zM496 1268q94 133 174 301h219v-21q-112 -173 -272 -307h-121v27z"/>
		<glyph unicode="&#x17b;" d="M1124 0h-1022v145l793 1151h-772v166h981v-145l-793 -1151h813v-166zM630 1847q107 0 107 -114q0 -115 -107 -115q-106 0 -106 115q0 114 106 114z"/>
		<glyph unicode="&#x17c;" d="M1044 0h-862v125l660 836h-627v137h811v-146l-647 -815h665v-137zM630 1509q107 0 107 -114q0 -115 -107 -115q-106 0 -106 115q0 114 106 114z"/>
		<glyph unicode="&#x17d;" d="M1124 0h-1022v145l793 1151h-772v166h981v-145l-793 -1151h813v-166zM945 1880l-59 -67q-141 -158 -176 -234h-193q-35 76 -176 234l-59 67v27h120q82 -54 211 -187q122 128 211 187h121v-27z"/>
		<glyph unicode="&#x17e;" d="M1044 0h-862v125l660 836h-627v137h811v-146l-647 -815h665v-137zM958 1542l-59 -67q-141 -158 -176 -234h-193q-35 76 -176 234l-59 67v27h120q82 -54 211 -187q122 128 211 187h121v-27z"/>
		<glyph unicode="&#x17f;" d="M1018 1532l-41 -143q-105 28 -227 28q-119 0 -165 -48t-46 -167v-1202h-183v1200q0 190 90 278.5t299 88.5q125 0 273 -35z"/>
		<glyph unicode="&#x192;" d="M668 836v-961q0 -190 -76.5 -278.5t-255.5 -88.5q-51 0 -121 15v153q59 -18 115 -18q92 0 123.5 51t31.5 164v963h-194v75l194 68v137q0 190 76.5 278.5t255.5 88.5q97 0 197 -37l-47 -141q-79 28 -144 28q-92 0 -123.5 -51t-31.5 -164v-145h245v-137h-245z"/>
		<glyph unicode="&#x1f0;" d="M135 -457v154q134 -39 289 -39q117 0 182.5 57t65.5 158v1081l-420 21v123h602v-1215q0 -180 -113 -277.5t-319 -97.5q-164 0 -287 35zM937 1542l-59 -67q-141 -158 -176 -234h-193q-35 76 -176 234l-59 67v27h120q82 -54 211 -187q122 128 211 187h121v-27z"/>
		<glyph unicode="&#x1fa;" d="M1004 0l-144 453h-491l-146 -453h-190l483 1468h195l485 -1468h-192zM807 618l-133 424q-39 124 -62 226q-20 -99 -46 -183l-144 -467h385zM612 1366q-102 0 -162.5 58t-60.5 157t60.5 157t162.5 58q101 0 165.5 -59t64.5 -154q0 -98 -63.5 -157.5t-166.5 -59.5z M612 1694q-49 0 -80.5 -30t-31.5 -83q0 -113 112 -113q50 0 81.5 30t31.5 83t-31.5 83t-81.5 30zM490 1862q94 133 174 301h219v-21q-112 -173 -272 -307h-121v27z"/>
		<glyph unicode="&#x1fb;" d="M895 0l-37 152h-8q-77 -97 -158 -134.5t-209 -37.5q-163 0 -255.5 86t-92.5 241q0 332 510 348l203 7v69q0 236 -244 236q-147 0 -328 -82l-63 137q196 96 383 96q227 0 328.5 -87t101.5 -279v-752h-131zM846 537l-162 -7q-196 -8 -278 -61.5t-82 -163.5q0 -178 200 -178 q147 0 234.5 81.5t87.5 229.5v99zM610 1241q-102 0 -162.5 58t-60.5 157t60.5 157t162.5 58q101 0 165.5 -59t64.5 -154q0 -98 -63.5 -157.5t-166.5 -59.5zM610 1569q-49 0 -80.5 -30t-31.5 -83q0 -113 112 -113q50 0 81.5 30t31.5 83t-31.5 83t-81.5 30zM512 1747 q94 133 174 301h219v-21q-112 -173 -272 -307h-121v27z"/>
		<glyph unicode="&#x1fc;" d="M1210 0h-653v453h-289l-96 -453h-172l338 1462h872v-164h-477v-452h438v-162h-438v-520h477v-164zM305 618h252v680h-106zM631 1606q94 133 174 301h219v-21q-112 -173 -272 -307h-121v27z"/>
		<glyph unicode="&#x1fd;" d="M522 662v69q0 236 -139 236q-107 0 -211 -82l-57 137q131 96 276 96q188 0 246 -178q78 178 240 178q137 0 223 -135.5t86 -355.5v-113h-496q3 -192 67 -283.5t169 -91.5q111 0 233 76v-162q-107 -73 -241 -73q-222 0 -316 229q-105 -229 -301 -229q-115 0 -185.5 86.5 t-70.5 240.5q0 332 328 348zM694 662h316q0 141 -40.5 223t-111.5 82q-68 0 -113 -78t-51 -227zM520 537l-88 -7q-217 -17 -217 -225q0 -83 32 -130.5t87 -47.5q82 0 134 82.5t52 228.5v99zM531 1268q94 133 174 301h219v-21q-112 -173 -272 -307h-121v27z"/>
		<glyph unicode="&#x1fe;" d="M309 74l-92 -150l-137 78l121 197q-117 184 -117 536q0 750 534 750q186 0 310 -105l92 152l137 -78l-125 -201q115 -188 115 -520q0 -361 -138 -557t-393 -196q-189 0 -307 94zM319 391l515 836q-80 94 -216 94q-337 0 -337 -588q0 -212 38 -342zM915 1061l-512 -832 q80 -86 213 -86q173 0 253.5 145t80.5 445q0 209 -35 328zM475 1606q94 133 174 301h219v-21q-112 -173 -272 -307h-121v27z"/>
		<glyph unicode="&#x1ff;" d="M377 33l-76 -119l-131 84l84 131q-139 158 -139 422q0 266 133 416.5t368 150.5q128 0 236 -57l76 119l131 -84l-84 -131q137 -156 137 -414q0 -271 -134.5 -421t-367.5 -150q-129 0 -233 53zM356 276l406 656q-66 35 -156 35q-161 0 -232 -103.5t-71 -312.5 q0 -180 53 -275zM872 817l-405 -653q61 -33 154 -33q161 0 232 105.5t71 314.5q0 164 -52 266zM498 1268q94 133 174 301h219v-21q-112 -173 -272 -307h-121v27z"/>
		<glyph unicode="&#x218;" d="M141 49v178q211 -86 414 -86q350 0 350 240q0 104 -70.5 160t-285.5 133q-208 73 -298.5 174.5t-90.5 263.5q0 174 128.5 272.5t352.5 98.5q229 0 416 -78l-64 -164q-193 78 -360 78q-293 0 -293 -209q0 -102 65.5 -164t270.5 -133q246 -88 328.5 -181.5t82.5 -240.5 q0 -192 -138.5 -301.5t-393.5 -109.5q-265 0 -414 69zM483 -426q62 140 84 301h178v-20q0 -22 -48 -124t-115 -184h-99v27z"/>
		<glyph unicode="&#x219;" d="M203 49v166q193 -86 370 -86q275 0 275 162q0 57 -49 99t-226 106q-233 87 -293.5 159.5t-60.5 171.5q0 136 111.5 213.5t308.5 77.5q198 0 369 -74l-60 -149q-182 72 -319 72q-236 0 -236 -133q0 -61 50.5 -97.5t232.5 -101.5q211 -77 280.5 -151.5t69.5 -182.5 q0 -150 -117 -235.5t-331 -85.5q-248 0 -375 69zM455 -426q62 140 84 301h178v-20q0 -22 -48 -124t-115 -184h-99v27z"/>
		<glyph unicode="&#x2bc;" d="M766 1462l14 -22q-55 -213 -176 -479h-158q65 266 101 501h219z"/>
		<glyph unicode="&#x2c6;" d="M946 1241h-121q-85 56 -211 186q-133 -136 -211 -186h-120v27l59 67q139 155 176 234h193q37 -79 176 -234l59 -67v-27z"/>
		<glyph unicode="&#x2c7;" d="M946 1542l-59 -67q-141 -158 -176 -234h-193q-35 76 -176 234l-59 67v27h120q82 -54 211 -187q122 128 211 187h121v-27z"/>
		<glyph unicode="&#x2c9;" d="M326 1391h575v-150h-575v150z"/>
		<glyph unicode="&#x2d8;" d="M915 1518q-9 -127 -89 -202t-216 -75q-280 0 -297 277h109q7 -76 46.5 -100.5t143.5 -24.5q181 0 191 125h112z"/>
		<glyph unicode="&#x2d9;" d="M614 1509q107 0 107 -114q0 -115 -107 -115q-106 0 -106 115q0 114 106 114z"/>
		<glyph unicode="&#x2da;" d="M610 1241q-102 0 -162.5 58t-60.5 157t60.5 157t162.5 58q101 0 165.5 -59t64.5 -154q0 -98 -63.5 -157.5t-166.5 -59.5zM610 1569q-49 0 -80.5 -30t-31.5 -83q0 -113 112 -113q50 0 81.5 30t31.5 83t-31.5 83t-81.5 30z"/>
		<glyph unicode="&#x2db;" d="M815 -319v-113q-73 -23 -156 -23q-119 0 -182 54.5t-63 148.5q0 144 190 252h131q-170 -125 -170 -238q0 -96 127 -96q66 0 123 15z"/>
		<glyph unicode="&#x2dc;" d="M358 1241h-104q25 264 211 264q58 0 161 -56q102 -56 136 -56q80 0 106 114h105q-27 -264 -211 -264q-57 0 -157 57q-100 56 -140 56q-82 0 -107 -115z"/>
		<glyph unicode="&#x2dd;" d="M246 1268q94 133 174 301h198v-21q-112 -173 -272 -307h-100v27zM608 1268q87 118 174 301h199v-21q-112 -173 -272 -307h-101v27z"/>
		<glyph unicode="&#x2f3;" d="M840 -338q0 -51 -17.5 -91.5t-48.5 -68.5t-73 -42.5t-91 -14.5q-50 0 -91 14.5t-70.5 42.5t-45.5 67.5t-16 90.5t16 90.5t45.5 67.5t70.5 42.5t91 14.5q48 0 90 -14.5t73 -42t49 -67t18 -89.5zM723 -340q0 53 -31.5 83t-81.5 30q-49 0 -80.5 -30t-31.5 -83t28.5 -83 t83.5 -30q50 0 81.5 30t31.5 83z"/>
		<glyph unicode="&#x384;" d="M479 1268l30 107q30 114 40 194h199v-21q0 -16 -49.5 -120t-110.5 -187h-109v27z"/>
		<glyph unicode="&#x385;" d="M532 1415q50 139 91 301h206v-20q-93 -164 -215 -307h-82v26zM395 1497q97 0 97 -102q0 -49 -28 -76t-69 -27q-96 0 -96 103q0 102 96 102zM831 1497q97 0 97 -102q0 -103 -97 -103q-96 0 -96 103q0 102 96 102z"/>
		<glyph unicode="&#x386;" d="M1004 0l-144 453h-491l-146 -453h-190l483 1468h195l485 -1468h-192zM807 618l-133 424q-39 124 -62 226q-20 -99 -46 -183l-144 -467h385zM36 1163l30 107q30 114 40 194h199v-21q0 -16 -49.5 -120t-110.5 -187h-109v27z"/>
		<glyph unicode="&#x387;" d="M614 862q127 0 127 -139t-127 -139t-127 139t127 139z"/>
		<glyph unicode="&#x388;" d="M1059 0h-842v1462h842v-164h-656v-452h617v-162h-617v-520h656v-164zM-114 1163l30 107q30 114 40 194h199v-21q0 -16 -49.5 -120t-110.5 -187h-109v27z"/>
		<glyph unicode="&#x389;" d="M1094 0h-187v682h-585v-682h-187v1462h187v-616h585v616h187v-1462zM-155 1163l30 107q30 114 40 194h199v-21q0 -16 -49.5 -120t-110.5 -187h-109v27z"/>
		<glyph unicode="&#x38a;" d="M1001 0h-776v123l295 20v1176l-295 20v123h776v-123l-294 -20v-1176l294 -20v-123zM-93 1163l30 107q30 114 40 194h199v-21q0 -16 -49.5 -120t-110.5 -187h-109v27z"/>
		<glyph unicode="&#x38c;" d="M616 -20q-532 0 -532 755q0 750 534 750q256 0 392.5 -195.5t136.5 -556.5t-138 -557t-393 -196zM616 143q173 0 253.5 145t80.5 445q0 303 -81.5 445.5t-250.5 142.5q-337 0 -337 -588q0 -590 335 -590zM-132 1163l30 107q30 114 40 194h199v-21q0 -16 -49.5 -120 t-110.5 -187h-109v27z"/>
		<glyph unicode="&#x38e;" d="M612 723l381 739h201l-487 -893v-569h-187v559l-487 903h203zM-237 1163l30 107q30 114 40 194h199v-21q0 -16 -49.5 -120t-110.5 -187h-109v27z"/>
		<glyph unicode="&#x38f;" d="M541 147v-147h-467v164h266q-254 235 -254 661q0 312 140 486t390 174t390.5 -174t140.5 -486q0 -429 -256 -661h268v-164h-469v147q260 231 260 674q0 500 -336 500q-335 0 -335 -500q0 -443 262 -674zM-134 1163l30 107q30 114 40 194h199v-21q0 -16 -49.5 -120 t-110.5 -187h-109v27z"/>
		<glyph unicode="&#x390;" d="M610 1098v-774q0 -195 193 -195q112 0 213 21v-138q-93 -32 -225 -32q-363 0 -363 344v774h182zM474 1415q50 139 91 301h206v-20q-93 -164 -215 -307h-82v26zM337 1497q97 0 97 -102q0 -49 -28 -76t-69 -27q-96 0 -96 103q0 102 96 102zM773 1497q97 0 97 -102 q0 -103 -97 -103q-96 0 -96 103q0 102 96 102z"/>
		<glyph unicode="&#x391;" d="M1004 0l-144 453h-491l-146 -453h-190l483 1468h195l485 -1468h-192zM807 618l-133 424q-39 124 -62 226q-20 -99 -46 -183l-144 -467h385z"/>
		<glyph unicode="&#x392;" d="M135 1462h440q274 0 397.5 -87.5t123.5 -282.5q0 -128 -78.5 -213t-212.5 -103v-10q332 -54 332 -342q0 -198 -127.5 -311t-347.5 -113h-527v1462zM322 842h284q156 0 227.5 55t71.5 182q0 120 -76.5 172t-242.5 52h-264v-461zM322 686v-528h307q311 0 311 274 q0 254 -324 254h-294z"/>
		<glyph unicode="&#x393;" d="M1059 1462v-166h-639v-1296h-187v1462h826z"/>
		<glyph unicode="&#x394;" d="M1159 125v-125h-1091v133l450 1329h187zM610 1257q-51 -223 -88 -333l-254 -758h686l-252 752q-52 155 -92 339z"/>
		<glyph unicode="&#x395;" d="M1059 0h-842v1462h842v-164h-656v-452h617v-162h-617v-520h656v-164z"/>
		<glyph unicode="&#x396;" d="M1124 0h-1022v145l793 1151h-772v166h981v-145l-793 -1151h813v-166z"/>
		<glyph unicode="&#x397;" d="M1094 0h-187v682h-585v-682h-187v1462h187v-616h585v616h187v-1462z"/>
		<glyph unicode="&#x398;" d="M616 -20q-532 0 -532 755q0 750 534 750q256 0 392.5 -195.5t136.5 -556.5t-138 -557t-393 -196zM616 143q173 0 253.5 145t80.5 445q0 303 -81.5 445.5t-250.5 142.5q-337 0 -337 -588q0 -590 335 -590zM410 825h411v-161h-411v161z"/>
		<glyph unicode="&#x399;" d="M1001 0h-776v123l295 20v1176l-295 20v123h776v-123l-294 -20v-1176l294 -20v-123z"/>
		<glyph unicode="&#x39a;" d="M1198 0h-211l-450 698l-140 -114v-584h-186v1462h186v-731l121 168l453 563h209l-521 -637z"/>
		<glyph unicode="&#x39b;" d="M1196 0h-199l-292 922q-63 199 -93 340q-45 -200 -88 -334l-295 -928h-196l487 1462h187z"/>
		<glyph unicode="&#x39c;" d="M532 0l-278 1280h-8q18 -266 18 -406v-874h-151v1462h247l248 -1192h6l250 1192h252v-1462h-153v887q0 102 14 391h-8l-283 -1278h-154z"/>
		<glyph unicode="&#x39d;" d="M1092 0h-215l-580 1210h-8q18 -277 18 -417v-793h-172v1462h213l578 -1204h6q-14 303 -14 404v800h174v-1462z"/>
		<glyph unicode="&#x39e;" d="M152 1462h923v-164h-923v164zM233 846h760v-162h-760v162zM1116 164v-164h-1005v164h1005z"/>
		<glyph unicode="&#x39f;" d="M616 -20q-532 0 -532 755q0 750 534 750q256 0 392.5 -195.5t136.5 -556.5t-138 -557t-393 -196zM616 143q173 0 253.5 145t80.5 445q0 303 -81.5 445.5t-250.5 142.5q-337 0 -337 -588q0 -590 335 -590z"/>
		<glyph unicode="&#x3a0;" d="M1094 0h-187v1298h-585v-1298h-187v1462h959v-1462z"/>
		<glyph unicode="&#x3a1;" d="M362 569v-569h-186v1462h404q514 0 514 -428q0 -219 -138.5 -342t-402.5 -123h-191zM362 727h170q198 0 283.5 72t85.5 225q0 279 -338 279h-201v-576z"/>
		<glyph unicode="&#x3a3;" d="M131 0v152l414 614l-402 549v147h893v-164h-680l389 -530l-409 -604h760v-164h-965z"/>
		<glyph unicode="&#x3a4;" d="M707 0h-187v1298h-418v164h1022v-164h-417v-1298z"/>
		<glyph unicode="&#x3a5;" d="M612 723l381 739h201l-487 -893v-569h-187v559l-487 903h203z"/>
		<glyph unicode="&#x3a6;" d="M532 1483h166v-180h47q213 0 336 -154.5t123 -390.5t-126.5 -394.5t-354.5 -158.5h-25v-225h-166v225h-24q-230 0 -355.5 159t-125.5 394t122.5 390t335.5 155h47v180zM698 362h7q155 0 241 106.5t86 293.5q0 172 -79 276.5t-222 104.5h-33v-781zM532 1143h-32 q-143 0 -222 -104.5t-79 -276.5q0 -187 86 -293.5t241 -106.5h6v781z"/>
		<glyph unicode="&#x3a7;" d="M1174 0h-211l-355 635l-366 -635h-189l453 764l-422 698h199l331 -559l334 559h191l-422 -692z"/>
		<glyph unicode="&#x3a8;" d="M1174 983q0 -287 -116 -412t-343 -125h-17v-446h-166v446h-16q-230 0 -344.5 125.5t-114.5 407.5v483h172v-479q0 -231 69 -305t218 -74h16v858h166v-858h17q149 0 217.5 72t68.5 303v483h173v-479z"/>
		<glyph unicode="&#x3a9;" d="M541 147v-147h-467v164h266q-254 235 -254 661q0 312 140 486t390 174t390.5 -174t140.5 -486q0 -429 -256 -661h268v-164h-469v147q260 231 260 674q0 500 -336 500q-335 0 -335 -500q0 -443 262 -674z"/>
		<glyph unicode="&#x3aa;" d="M1001 0h-776v123l295 20v1176l-295 20v123h776v-123l-294 -20v-1176l294 -20v-123zM428 1835q96 0 96 -102q0 -103 -96 -103t-96 103q0 102 96 102zM803 1835q96 0 96 -102q0 -103 -96 -103t-96 103q0 102 96 102z"/>
		<glyph unicode="&#x3ab;" d="M612 723l381 739h201l-487 -893v-569h-187v559l-487 903h203zM428 1835q96 0 96 -102q0 -103 -96 -103t-96 103q0 102 96 102zM803 1835q96 0 96 -102q0 -103 -96 -103t-96 103q0 102 96 102z"/>
		<glyph unicode="&#x3ac;" d="M862 950h12q30 103 68 148h143q-51 -166 -51 -439v-419q0 -111 84 -111q29 0 60 10v-133q-52 -26 -115 -26q-159 0 -199 167h-12q-108 -167 -313 -167q-195 0 -306.5 148.5t-111.5 418.5q0 273 115 422t321 149q210 0 305 -168zM852 532v15q0 227 -67 323.5t-214 96.5 q-262 0 -262 -422q0 -414 264 -414q148 0 211.5 92t67.5 309zM495 1268l30 107q30 114 40 194h199v-21q0 -16 -49.5 -120t-110.5 -187h-109v27z"/>
		<glyph unicode="&#x3ad;" d="M840 647v-153h-160q-301 0 -301 -185q0 -180 283 -180q196 0 366 86v-160q-134 -75 -377 -75q-211 0 -330.5 84t-119.5 235q0 193 237 268v11q-202 66 -202 249q0 135 112 213t301 78q216 0 383 -76l-63 -147q-161 72 -316 72q-243 0 -243 -154q0 -166 276 -166h154z M575 1268l30 107q30 114 40 194h199v-21q0 -16 -49.5 -120t-110.5 -187h-109v27z"/>
		<glyph unicode="&#x3ae;" d="M887 -492v1199q0 260 -238 260q-307 0 -307 -398v-569h-182v1098h147l27 -148h10q102 168 336 168q389 0 389 -401v-1209h-182zM559 1268l30 107q30 114 40 194h199v-21q0 -16 -49.5 -120t-110.5 -187h-109v27z"/>
		<glyph unicode="&#x3af;" d="M610 1098v-774q0 -195 193 -195q112 0 213 21v-138q-93 -32 -225 -32q-363 0 -363 344v774h182zM470 1268l30 107q30 114 40 194h199v-21q0 -16 -49.5 -120t-110.5 -187h-109v27z"/>
		<glyph unicode="&#x3b0;" d="M160 1098h182v-590q0 -379 274 -379q150 0 217.5 116t67.5 363q0 237 -63 490h182q63 -245 63 -498q0 -318 -115 -469t-358 -151q-450 0 -450 518v600zM529 1415q50 139 91 301h206v-20q-93 -164 -215 -307h-82v26zM392 1497q97 0 97 -102q0 -49 -28 -76t-69 -27 q-96 0 -96 103q0 102 96 102zM828 1497q97 0 97 -102q0 -103 -97 -103q-96 0 -96 103q0 102 96 102z"/>
		<glyph unicode="&#x3b1;" d="M862 950h12q30 103 68 148h143q-51 -166 -51 -439v-419q0 -111 84 -111q29 0 60 10v-133q-52 -26 -115 -26q-159 0 -199 167h-12q-108 -167 -313 -167q-195 0 -306.5 148.5t-111.5 418.5q0 273 115 422t321 149q210 0 305 -168zM852 532v15q0 227 -67 323.5t-214 96.5 q-262 0 -262 -422q0 -414 264 -414q148 0 211.5 92t67.5 309z"/>
		<glyph unicode="&#x3b2;" d="M723 829v-6q381 -48 381 -409q0 -205 -122.5 -319.5t-338.5 -114.5q-186 0 -303 63v-535h-182v1588q0 226 119 348.5t327 122.5q198 0 316 -105t118 -288q0 -136 -80.5 -227t-234.5 -118zM340 209q135 -80 289 -80q293 0 293 299q0 146 -95 228.5t-254 82.5h-94v152h70 q142 0 222.5 75t80.5 201q0 118 -67 184t-181 66q-264 0 -264 -330v-878z"/>
		<glyph unicode="&#x3b3;" d="M739 63q-110 -280 -110 -555h-191q0 207 101 504l-457 1086h192l242 -592q71 -174 107 -320h6q26 104 98 295l229 617h189z"/>
		<glyph unicode="&#x3b4;" d="M557 938q-254 145 -254 348q0 133 91 207t251 74q199 0 393 -109l-73 -145q-169 106 -328 106q-74 0 -117 -36.5t-43 -100.5q0 -63 42 -114.5t214 -151.5q361 -206 361 -518q0 -246 -129.5 -382t-354.5 -136q-213 0 -344 123.5t-131 334.5q0 372 422 500zM684 854 q-356 -100 -356 -420q0 -135 76 -219t206 -84q295 0 295 350q0 244 -221 373z"/>
		<glyph unicode="&#x3b5;" d="M840 647v-153h-160q-301 0 -301 -185q0 -180 283 -180q196 0 366 86v-160q-134 -75 -377 -75q-211 0 -330.5 84t-119.5 235q0 193 237 268v11q-202 66 -202 249q0 135 112 213t301 78q216 0 383 -76l-63 -147q-161 72 -316 72q-243 0 -243 -154q0 -166 276 -166h154z"/>
		<glyph unicode="&#x3b6;" d="M223 1556h838v-141q-396 -288 -553.5 -485t-157.5 -453q0 -153 83 -217.5t312 -103.5q171 -30 246.5 -80.5t75.5 -161.5q0 -149 -121 -315h-170q121 162 121 260q0 57 -51.5 89.5t-245.5 61.5q-229 35 -333.5 146.5t-104.5 312.5q0 257 161 478t537 468 q-215 -12 -352 -12h-285v153z"/>
		<glyph unicode="&#x3b7;" d="M887 -492v1199q0 260 -238 260q-307 0 -307 -398v-569h-182v1098h147l27 -148h10q102 168 336 168q389 0 389 -401v-1209h-182z"/>
		<glyph unicode="&#x3b8;" d="M612 -20q-229 0 -347 191.5t-118 557.5q0 380 114 563t351 183q231 0 350 -190.5t119 -555.5q0 -749 -469 -749zM332 807h563q-7 260 -73.5 388t-209.5 128q-139 0 -205.5 -125t-74.5 -391zM895 670h-563q6 -278 72 -408.5t208 -130.5t209.5 128t73.5 411z"/>
		<glyph unicode="&#x3b9;" d="M610 1098v-774q0 -195 193 -195q112 0 213 21v-138q-93 -32 -225 -32q-363 0 -363 344v774h182z"/>
		<glyph unicode="&#x3ba;" d="M383 508l137 166l402 424h213l-494 -510l522 -588h-213l-426 469l-129 -82v-387h-180v1098h180v-291l-16 -299h4z"/>
		<glyph unicode="&#x3bb;" d="M61 0l504 1083l-53 160q-34 104 -77 140t-116 36q-56 0 -104 -12v145q65 17 127 17q142 0 213 -67.5t141 -278.5l326 -983q37 -111 102 -111q29 0 60 10v-133q-50 -26 -115 -26q-82 0 -125.5 40t-71.5 127l-135 418q-69 214 -94 336h-6q-36 -138 -119 -321l-268 -580 h-189z"/>
		<glyph unicode="&#x3bc;" d="M342 391q0 -260 238 -260q160 0 233.5 93t73.5 304v570h182v-1098h-147l-27 147h-10q-97 -167 -301 -167q-173 0 -248 88q6 -153 6 -240v-320h-182v1590h182v-707z"/>
		<glyph unicode="&#x3bd;" d="M61 1098h189l223 -586q110 -289 121 -358h6q157 164 236 369t79 575h183q0 -365 -100.5 -610t-325.5 -488h-187z"/>
		<glyph unicode="&#x3be;" d="M985 887v-137h-201q-207 0 -315.5 -81.5t-108.5 -230.5q0 -91 38 -143.5t107.5 -80.5t248.5 -60q162 -29 237.5 -79t75.5 -161q0 -149 -121 -315h-170q121 162 121 262q0 53 -49.5 85.5t-237.5 61.5q-438 68 -438 414q0 134 75.5 239.5t207.5 147.5v12q-215 59 -215 279 q0 114 75 189t260 126q-176 -12 -280 -12h-62v153h764v-153h-69q-217 0 -364.5 -80t-147.5 -219q0 -113 91.5 -165t287.5 -52h190z"/>
		<glyph unicode="&#x3bf;" d="M610 -20q-216 0 -355.5 155.5t-139.5 415.5q0 263 135.5 415t365.5 152q218 0 357 -155t139 -412q0 -265 -137 -418t-365 -153zM614 131q310 0 310 420q0 416 -312 416q-309 0 -309 -416q0 -420 311 -420z"/>
		<glyph unicode="&#x3c0;" d="M1184 150v-144q-52 -26 -137 -26q-226 0 -226 262v702h-403v-944h-182v944h-222v74l138 80h1062v-154h-210v-690q0 -125 90 -125q46 0 90 21z"/>
		<glyph unicode="&#x3c1;" d="M340 70h-6q6 -174 6 -271v-291h-182v1043q0 263 126.5 415t344.5 152q206 0 330 -153.5t124 -413.5q0 -270 -123.5 -420.5t-338.5 -150.5q-168 0 -281 90zM340 231q112 -100 283 -100q144 0 208 105.5t64 314.5t-65 312.5t-209 103.5q-281 0 -281 -396v-340z"/>
		<glyph unicode="&#x3c2;" d="M940 -401h-166q121 163 121 262q0 60 -66 89.5t-229 57.5q-428 71 -428 508q0 602 567 602q164 0 322 -59l-62 -158q-158 57 -272 57q-367 0 -367 -440q0 -187 77.5 -254t269.5 -102q358 -66 358 -252q0 -141 -125 -311z"/>
		<glyph unicode="&#x3c3;" d="M1174 1098v-154h-267q178 -195 178 -440q0 -235 -128.5 -379.5t-352.5 -144.5q-221 0 -348 143.5t-127 400.5q0 574 555 574h490zM743 944h-59q-199 0 -283 -97.5t-84 -322.5q0 -185 76.5 -289t218.5 -104q139 0 212 95.5t73 269.5q0 269 -154 448z"/>
		<glyph unicode="&#x3c4;" d="M1081 1098v-154h-475v-606q0 -215 209 -215q107 0 191 20v-135q-84 -35 -220 -35q-362 0 -362 344v627h-318v74l134 80h841z"/>
		<glyph unicode="&#x3c5;" d="M160 1098h182v-590q0 -379 274 -379q150 0 217.5 116t67.5 363q0 237 -63 490h182q63 -245 63 -498q0 -318 -115 -469t-358 -151q-450 0 -450 518v600z"/>
		<glyph unicode="&#x3c6;" d="M524 -492v474q-450 25 -450 565q0 314 207 559l120 -90q-97 -129 -131 -232t-34 -237q0 -383 288 -416v606q0 381 281 381q164 0 257 -147.5t93 -399.5q0 -264 -125 -419.5t-348 -169.5v-474h-158zM682 131q305 29 305 438q0 398 -176 398q-129 0 -129 -228v-608z"/>
		<glyph unicode="&#x3c7;" d="M637 506l311 592h178l-417 -776l186 -461q46 -114 86 -158.5t104 -44.5q44 0 80 8v-139q-66 -19 -118 -19q-102 0 -169.5 45t-138.5 222l-147 377l-354 -644h-195l475 830l-180 446q-68 168 -152 168q-29 0 -63 -10v143q53 17 129 17q81 0 136 -54.5t110 -193.5z"/>
		<glyph unicode="&#x3c8;" d="M682 1554v-1421q301 28 301 436q0 250 -63 529h172q63 -276 63 -523q0 -567 -473 -593v-474h-158v474q-233 8 -338.5 143t-105.5 430v543h172v-529q0 -422 272 -438v1423h158z"/>
		<glyph unicode="&#x3c9;" d="M195 1098h165q-104 -262 -104 -566q0 -401 139 -401q67 0 104.5 71t37.5 197v306h157v-306q0 -130 39.5 -199t102.5 -69q139 0 139 401q0 306 -105 566h166q105 -258 105 -566q0 -552 -289 -552q-181 0 -231 178h-11q-50 -178 -231 -178q-289 0 -289 552q0 302 105 566z "/>
		<glyph unicode="&#x3ca;" d="M610 1098v-774q0 -195 193 -195q112 0 213 21v-138q-93 -32 -225 -32q-363 0 -363 344v774h182zM355 1497q96 0 96 -102q0 -103 -96 -103t-96 103q0 102 96 102zM730 1497q96 0 96 -102q0 -103 -96 -103t-96 103q0 102 96 102z"/>
		<glyph unicode="&#x3cb;" d="M160 1098h182v-590q0 -379 274 -379q150 0 217.5 116t67.5 363q0 237 -63 490h182q63 -245 63 -498q0 -318 -115 -469t-358 -151q-450 0 -450 518v600zM426 1497q96 0 96 -102q0 -103 -96 -103t-96 103q0 102 96 102zM801 1497q96 0 96 -102q0 -103 -96 -103t-96 103 q0 102 96 102z"/>
		<glyph unicode="&#x3cc;" d="M610 -20q-216 0 -355.5 155.5t-139.5 415.5q0 263 135.5 415t365.5 152q218 0 357 -155t139 -412q0 -265 -137 -418t-365 -153zM614 131q310 0 310 420q0 416 -312 416q-309 0 -309 -416q0 -420 311 -420zM551 1268l30 107q30 114 40 194h199v-21q0 -16 -49.5 -120 t-110.5 -187h-109v27z"/>
		<glyph unicode="&#x3cd;" d="M160 1098h182v-590q0 -379 274 -379q150 0 217.5 116t67.5 363q0 237 -63 490h182q63 -245 63 -498q0 -318 -115 -469t-358 -151q-450 0 -450 518v600zM518 1268l30 107q30 114 40 194h199v-21q0 -16 -49.5 -120t-110.5 -187h-109v27z"/>
		<glyph unicode="&#x3ce;" d="M195 1098h165q-104 -262 -104 -566q0 -401 139 -401q67 0 104.5 71t37.5 197v306h157v-306q0 -130 39.5 -199t102.5 -69q139 0 139 401q0 306 -105 566h166q105 -258 105 -566q0 -552 -289 -552q-181 0 -231 178h-11q-50 -178 -231 -178q-289 0 -289 552q0 302 105 566z M530 1268l30 107q30 114 40 194h199v-21q0 -16 -49.5 -120t-110.5 -187h-109v27z"/>
		<glyph unicode="&#x3d1;" d="M874 977q-13 108 -41.5 193t-67 143t-84 88.5t-93.5 30.5q-76 0 -119 -44t-43 -116q0 -56 23 -108.5t76 -93.5t138.5 -66.5t210.5 -26.5zM1065 840q2 -22 3 -51t1 -60q0 -159 -32 -296t-96.5 -237.5t-162.5 -158t-229 -57.5q-111 0 -184 27.5t-116 75t-60 110t-17 131.5 q0 40 5 86.5t11 91.5l10 82q5 37 5 61q0 45 -15.5 61.5t-46.5 16.5q-24 0 -51 -7.5t-43 -17.5l-37 127q37 17 87 30t104 13q50 0 84.5 -14t56.5 -39t31.5 -59t9.5 -74q0 -35 -5 -78l-10 -90q-6 -46 -11 -94.5t-5 -93.5q0 -42 10.5 -79t34.5 -64t63 -42.5t97 -15.5 q164 0 246 153t82 457q0 23 -1 54t-3 51q-174 2 -295 39.5t-196 97.5t-108.5 137t-33.5 158q0 67 19.5 123t60 97t104 64t152.5 23q104 0 184.5 -42t139 -120t96 -189.5t55.5 -250.5h143v-137h-137z"/>
		<glyph unicode="&#x3d2;" d="M612 731q25 75 62 159l77 164l75 148l61 113q22 40 45 70.5t50 50t59 29.5t73 10q34 0 55.5 -4.5t38.5 -12.5v-145q-12 3 -28.5 5.5t-28.5 2.5q-28 0 -59 -23.5t-66 -83.5l-36 -62l-52 -97l-62 -119l-64.5 -133t-59.5 -135t-47 -127v-541h-187v559l-487 903h202z"/>
		<glyph unicode="&#x3d6;" d="M379 -20q-79 0 -134 34t-89.5 98t-50 154.5t-15.5 204.5q0 67 5 125t16 113t28.5 112t42.5 123h-164v74l134 80h1052v-154h-155q24 -66 41.5 -123t29 -112t16.5 -113t5 -125q0 -114 -15.5 -204.5t-50 -154.5t-89.5 -98t-134 -34q-94 0 -149.5 43.5t-81.5 134.5h-11 q-26 -91 -81.5 -134.5t-149.5 -43.5zM975 471q0 62 -5 119t-16.5 113t-29 115t-41.5 126h-535q-25 -67 -42.5 -126t-28.5 -115t-16 -113t-5 -119q0 -91 8 -155.5t25.5 -105.5t43.5 -60t62 -19t63 20.5t44.5 56.5t26 85t8.5 106v203h157v-203q0 -130 39.5 -199t102.5 -69 q36 0 62 19t43.5 60t25.5 105.5t8 155.5z"/>
		<glyph unicode="&#x401;" d="M1059 0h-842v1462h842v-164h-656v-452h617v-162h-617v-520h656v-164zM451 1835q96 0 96 -102q0 -103 -96 -103t-96 103q0 102 96 102zM826 1835q96 0 96 -102q0 -103 -96 -103t-96 103q0 102 96 102z"/>
		<glyph unicode="&#x402;" d="M664 4v160q68 -21 135 -21q180 0 180 226v133q0 231 -227 231h-244v-733h-186v1298h-299v164h841v-164h-356v-401h264q187 0 290 -96.5t103 -274.5v-137q0 -196 -94.5 -302.5t-265.5 -106.5q-88 0 -141 24z"/>
		<glyph unicode="&#x403;" d="M1059 1462v-166h-639v-1296h-187v1462h826zM508 1606q94 133 174 301h219v-21q-112 -173 -272 -307h-121v27z"/>
		<glyph unicode="&#x404;" d="M332 846h629v-162h-635q23 -541 471 -541q130 0 327 58v-162q-146 -59 -358 -59q-309 0 -473 196t-164 557q0 346 179 548t489 202q220 0 383 -86l-78 -156q-154 78 -305 78q-188 0 -313 -124.5t-152 -348.5z"/>
		<glyph unicode="&#x405;" d="M141 49v178q211 -86 414 -86q350 0 350 240q0 104 -70.5 160t-285.5 133q-208 73 -298.5 174.5t-90.5 263.5q0 174 128.5 272.5t352.5 98.5q229 0 416 -78l-64 -164q-193 78 -360 78q-293 0 -293 -209q0 -102 65.5 -164t270.5 -133q246 -88 328.5 -181.5t82.5 -240.5 q0 -192 -138.5 -301.5t-393.5 -109.5q-265 0 -414 69z"/>
		<glyph unicode="&#x406;" d="M1001 0h-776v123l295 20v1176l-295 20v123h776v-123l-294 -20v-1176l294 -20v-123z"/>
		<glyph unicode="&#x407;" d="M1001 0h-776v123l295 20v1176l-295 20v123h776v-123l-294 -20v-1176l294 -20v-123zM428 1835q96 0 96 -102q0 -103 -96 -103t-96 103q0 102 96 102zM803 1835q96 0 96 -102q0 -103 -96 -103t-96 103q0 102 96 102z"/>
		<glyph unicode="&#x408;" d="M137 39v166q162 -62 309 -62q161 0 254 79.5t93 226.5v1013h186v-1011q0 -216 -140.5 -343.5t-377.5 -127.5q-217 0 -324 59z"/>
		<glyph unicode="&#x409;" d="M375 1298l-20 -548q-20 -573 -83.5 -671.5t-175.5 -98.5q-56 0 -96 18v145q32 -14 68 -14q35 0 61.5 35t39 127t33 524.5t23.5 646.5h498v-616h39q446 0 446 -418q0 -208 -114 -318t-330 -110h-207v1298h-182zM723 160h45q268 0 268 268q0 134 -69 194t-224 60h-20v-522z "/>
		<glyph unicode="&#x40a;" d="M549 0v682h-318v-682h-165v1462h165v-616h318v616h166v-616h39q219 0 332.5 -107.5t113.5 -310.5q0 -208 -114 -318t-330 -110h-207zM715 160h45q268 0 268 268q0 134 -69 194t-224 60h-20v-522z"/>
		<glyph unicode="&#x40b;" d="M508 897h264q187 0 290 -96.5t103 -274.5v-526h-186v502q0 231 -227 231h-244v-733h-186v1298h-299v164h841v-164h-356v-401z"/>
		<glyph unicode="&#x40c;" d="M1198 0h-219l-582 741v-741h-186v1462h186v-708l566 708h206l-565 -702zM574 1606q94 133 174 301h219v-21q-112 -173 -272 -307h-121v27z"/>
		<glyph unicode="&#x40e;" d="M1200 1462l-428 -1030q-76 -183 -136 -268.5t-149 -134.5t-215 -49q-104 0 -178 30v185q85 -45 178 -45q110 0 170.5 51.5t114.5 173.5l-530 1087h204l383 -809q12 -25 20 -47q8 -25 17 -45h2l39 109l312 792h196zM1003 1897q-20 -318 -389 -318q-195 0 -281 74t-96 244 h170q8 -102 50 -144.5t161 -42.5q194 0 211 187h174z"/>
		<glyph unicode="&#x40f;" d="M1094 0h-394v-385h-176v385h-389v1462h187v-1296h585v1296h187v-1462z"/>
		<glyph unicode="&#x410;" d="M1004 0l-144 453h-491l-146 -453h-190l483 1468h195l485 -1468h-192zM807 618l-133 424q-39 124 -62 226q-20 -99 -46 -183l-144 -467h385z"/>
		<glyph unicode="&#x411;" d="M135 0v1462h912v-164h-725v-452h272q541 0 541 -418q0 -208 -131.5 -318t-382.5 -110h-486zM322 160h282q338 0 338 268q0 133 -85.5 193.5t-283.5 60.5h-251v-522z"/>
		<glyph unicode="&#x412;" d="M135 1462h440q274 0 397.5 -87.5t123.5 -282.5q0 -128 -78.5 -213t-212.5 -103v-10q332 -54 332 -342q0 -198 -127.5 -311t-347.5 -113h-527v1462zM322 842h284q156 0 227.5 55t71.5 182q0 120 -76.5 172t-242.5 52h-264v-461zM322 686v-528h307q311 0 311 274 q0 254 -324 254h-294z"/>
		<glyph unicode="&#x413;" d="M1059 1462v-166h-639v-1296h-187v1462h826z"/>
		<glyph unicode="&#x414;" d="M1221 -385h-177v385h-862v-385h-176v551h113q129 236 216 594t99 702h592v-1296h195v-551zM840 166v1130h-242q-17 -266 -98.5 -596.5t-188.5 -533.5h529z"/>
		<glyph unicode="&#x415;" d="M1059 0h-842v1462h842v-164h-656v-452h617v-162h-617v-520h656v-164z"/>
		<glyph unicode="&#x416;" d="M373 754l-361 708h178l349 -708v708h155v-708l342 708h178l-356 -708l371 -754h-185l-350 741v-741h-155v741l-357 -741h-182z"/>
		<glyph unicode="&#x417;" d="M702 770v-6q178 -23 273.5 -114t95.5 -234q0 -203 -142 -319.5t-403 -116.5q-242 0 -387 79v170q184 -96 383 -96q355 0 355 283q0 264 -394 264h-190v151h176q180 0 280.5 74t100.5 199q0 103 -70 164t-188 61q-186 0 -354 -121l-93 125q194 150 455 150 q209 0 326.5 -99t117.5 -264q0 -137 -89.5 -230t-252.5 -120z"/>
		<glyph unicode="&#x418;" d="M137 1462h174v-800q0 -142 -7 -254l-7 -150h6l578 1204h213v-1462h-172v793q0 140 18 417h-8l-580 -1210h-215v1462z"/>
		<glyph unicode="&#x419;" d="M137 1462h174v-800q0 -142 -7 -254l-7 -150h6l578 1204h213v-1462h-172v793q0 140 18 417h-8l-580 -1210h-215v1462zM997 1897q-20 -318 -389 -318q-195 0 -281 74t-96 244h170q8 -102 50 -144.5t161 -42.5q194 0 211 187h174z"/>
		<glyph unicode="&#x41a;" d="M1198 0h-219l-582 741v-741h-186v1462h186v-708l566 708h206l-565 -702z"/>
		<glyph unicode="&#x41b;" d="M1094 0h-187v1298h-297q-117 -977 -205.5 -1149t-263.5 -172q-71 0 -137 25v150q57 -25 113 -25q102 0 157 180.5t181 1154.5h639v-1462z"/>
		<glyph unicode="&#x41c;" d="M532 0l-278 1280h-8q18 -266 18 -406v-874h-151v1462h247l248 -1192h6l250 1192h252v-1462h-153v887q0 102 14 391h-8l-283 -1278h-154z"/>
		<glyph unicode="&#x41d;" d="M1094 0h-187v682h-585v-682h-187v1462h187v-616h585v616h187v-1462z"/>
		<glyph unicode="&#x41e;" d="M616 -20q-532 0 -532 755q0 750 534 750q256 0 392.5 -195.5t136.5 -556.5t-138 -557t-393 -196zM616 143q173 0 253.5 145t80.5 445q0 303 -81.5 445.5t-250.5 142.5q-337 0 -337 -588q0 -590 335 -590z"/>
		<glyph unicode="&#x41f;" d="M1094 0h-187v1298h-585v-1298h-187v1462h959v-1462z"/>
		<glyph unicode="&#x420;" d="M362 569v-569h-186v1462h404q514 0 514 -428q0 -219 -138.5 -342t-402.5 -123h-191zM362 727h170q198 0 283.5 72t85.5 225q0 279 -338 279h-201v-576z"/>
		<glyph unicode="&#x421;" d="M1124 201v-162q-146 -59 -358 -59q-309 0 -473 196t-164 557q0 346 179 548t489 202q220 0 383 -86l-78 -156q-154 78 -305 78q-215 0 -343 -158.5t-128 -429.5q0 -287 120 -437.5t351 -150.5q130 0 327 58z"/>
		<glyph unicode="&#x422;" d="M707 0h-187v1298h-418v164h1022v-164h-417v-1298z"/>
		<glyph unicode="&#x423;" d="M1200 1462l-428 -1030q-76 -183 -136 -268.5t-149 -134.5t-215 -49q-104 0 -178 30v185q85 -45 178 -45q110 0 170.5 51.5t114.5 173.5l-530 1087h204l383 -809q12 -25 20 -47q8 -25 17 -45h2l39 109l312 792h196z"/>
		<glyph unicode="&#x424;" d="M532 1483h166v-180h47q213 0 336 -154.5t123 -390.5t-126.5 -394.5t-354.5 -158.5h-25v-225h-166v225h-24q-230 0 -355.5 159t-125.5 394t122.5 390t335.5 155h47v180zM698 362h7q155 0 241 106.5t86 293.5q0 172 -79 276.5t-222 104.5h-33v-781zM532 1143h-32 q-143 0 -222 -104.5t-79 -276.5q0 -187 86 -293.5t241 -106.5h6v781z"/>
		<glyph unicode="&#x425;" d="M1174 0h-211l-355 635l-366 -635h-189l453 764l-422 698h199l331 -559l334 559h191l-422 -692z"/>
		<glyph unicode="&#x426;" d="M1034 166h176v-551h-176v385h-899v1462h187v-1296h526v1296h186v-1296z"/>
		<glyph unicode="&#x427;" d="M1094 0h-187v598q-227 -90 -393 -90q-379 0 -379 371v583h187v-559q0 -130 51.5 -180.5t161.5 -50.5q153 0 372 80v710h187v-1462z"/>
		<glyph unicode="&#x428;" d="M1110 0h-989v1462h166v-1296h245v1296h166v-1296h246v1296h166v-1462z"/>
		<glyph unicode="&#x429;" d="M1051 166h178v-551h-176v385h-992v1462h166v-1296h246v1296h166v-1296h246v1296h166v-1296z"/>
		<glyph unicode="&#x42a;" d="M326 0v1298h-299v164h485v-616h68q270 0 415.5 -109t145.5 -309q0 -202 -138.5 -315t-396.5 -113h-280zM512 160h98q338 0 338 268q0 132 -85.5 193t-282.5 61h-68v-522z"/>
		<glyph unicode="&#x42b;" d="M96 0v1462h166v-616h47q541 0 541 -418q0 -208 -131.5 -318t-382.5 -110h-240zM262 160h78q338 0 338 268q0 133 -85.5 193.5t-283.5 60.5h-47v-522zM967 0v1462h166v-1462h-166z"/>
		<glyph unicode="&#x42c;" d="M176 0v1462h186v-616h191q541 0 541 -418q0 -208 -131.5 -318t-382.5 -110h-404zM362 160h201q338 0 338 268q0 133 -85.5 193.5t-283.5 60.5h-170v-522z"/>
		<glyph unicode="&#x42d;" d="M145 1241l-77 156q161 86 383 86q304 0 476.5 -194.5t172.5 -530.5q0 -373 -171 -575.5t-487 -202.5q-212 0 -358 59v162q197 -58 328 -58q473 0 489 541h-629v162h625q-19 222 -137.5 347.5t-308.5 125.5q-152 0 -306 -78z"/>
		<glyph unicode="&#x42e;" d="M403 682h-139v-682h-166v1462h166v-616h144q18 349 105.5 494t270.5 145q192 0 283.5 -176.5t91.5 -575.5q0 -397 -92 -575t-285 -178q-190 0 -279.5 157.5t-99.5 544.5zM782 143q106 0 153.5 116.5t47.5 473.5q0 360 -48 474t-153 114q-108 0 -155 -118.5t-47 -469.5 q0 -348 46.5 -469t155.5 -121z"/>
		<glyph unicode="&#x42f;" d="M610 604l-334 -604h-219l381 655q-272 98 -272 408q0 399 504 399h372v-1462h-186v604h-246zM856 1303h-188q-310 0 -310 -256q0 -137 82 -211t236 -74h180v541z"/>
		<glyph unicode="&#x430;" d="M895 0l-37 152h-8q-77 -97 -158 -134.5t-209 -37.5q-163 0 -255.5 86t-92.5 241q0 332 510 348l203 7v69q0 236 -244 236q-147 0 -328 -82l-63 137q196 96 383 96q227 0 328.5 -87t101.5 -279v-752h-131zM846 537l-162 -7q-196 -8 -278 -61.5t-82 -163.5q0 -178 200 -178 q147 0 234.5 81.5t87.5 229.5v99z"/>
		<glyph unicode="&#x431;" d="M1040 1571l33 -160q-397 -67 -499.5 -99.5t-166 -141t-71.5 -318.5h12q116 170 336 170q186 0 292.5 -131.5t106.5 -360.5q0 -260 -125 -405t-346 -145q-219 0 -344 180t-125 499q0 212 31 356t83 232t121 141t170 81.5t492 101.5zM332 655q0 -524 293 -524 q266 0 266 375q0 364 -240 364q-95 0 -183.5 -63.5t-135.5 -151.5z"/>
		<glyph unicode="&#x432;" d="M844 582v-7q264 -35 264 -258q0 -149 -106 -233t-314 -84h-512v1098h510q387 0 387 -277q0 -197 -229 -239zM358 944v-297h293q134 0 191 36t57 120q0 141 -217 141h-324zM358 494v-344h318q254 0 254 180q0 92 -65 128t-193 36h-314z"/>
		<glyph unicode="&#x433;" d="M1038 944h-565v-944h-182v1098h747v-154z"/>
		<glyph unicode="&#x434;" d="M1128 -381h-174v381h-747v-381h-174v535h86q262 389 266 944h592v-944h151v-535zM795 154v804h-250q-36 -481 -234 -804h484z"/>
		<glyph unicode="&#x435;" d="M1096 514h-774q8 -375 344 -375q195 0 370 76v-160q-166 -75 -364 -75q-245 0 -392 149.5t-147 411.5q0 266 135.5 421.5t362.5 155.5q212 0 338.5 -134t126.5 -357v-113zM326 662h573q0 305 -272 305q-275 0 -301 -305z"/>
		<glyph unicode="&#x436;" d="M535 565v533h159v-533l350 533h185l-367 -533l365 -565h-195l-338 557v-557h-159v557l-338 -557h-195l367 565l-369 533h184z"/>
		<glyph unicode="&#x437;" d="M506 647q172 0 244.5 39.5t72.5 126.5q0 154 -250 154q-134 0 -309 -72l-63 147q160 76 370 76q205 0 315.5 -74.5t110.5 -214.5q0 -186 -192 -243v-11q227 -65 227 -272q0 -151 -120.5 -237t-344.5 -86q-235 0 -362 69v166q180 -86 366 -86q283 0 283 180 q0 185 -311 185h-150v153h113z"/>
		<glyph unicode="&#x438;" d="M332 1098v-668l-13 -252l517 920h233v-1098h-172v647l10 271l-514 -918h-233v1098h172z"/>
		<glyph unicode="&#x439;" d="M332 1098v-668l-13 -252l517 920h233v-1098h-172v647l10 271l-514 -918h-233v1098h172zM1034 1559q-20 -318 -389 -318q-195 0 -281 74t-96 244h170q8 -102 50 -144.5t161 -42.5q194 0 211 187h174z"/>
		<glyph unicode="&#x43a;" d="M913 1098h222l-527 -527l566 -571h-232l-547 557v-557h-180v1098h180v-533z"/>
		<glyph unicode="&#x43b;" d="M1040 0h-182v944h-340q-37 -493 -126 -725.5t-269 -232.5q-62 0 -92 12v131q21 -6 49 -6q111 0 178.5 237.5t103.5 737.5h678v-1098z"/>
		<glyph unicode="&#x43c;" d="M1114 0h-151v897q-8 -27 -33 -127q-22 -85 -35 -123l-213 -647h-135l-213 647q-8 25 -68 250v-897h-151v1098h211l215 -656q25 -77 73 -268q5 13 53 191q10 39 21 73l219 660h207v-1098z"/>
		<glyph unicode="&#x43d;" d="M342 1098v-455h545v455h182v-1098h-182v489h-545v-489h-182v1098h182z"/>
		<glyph unicode="&#x43e;" d="M610 -20q-216 0 -355.5 155.5t-139.5 415.5q0 263 135.5 415t365.5 152q218 0 357 -155t139 -412q0 -265 -137 -418t-365 -153zM614 131q310 0 310 420q0 416 -312 416q-309 0 -309 -416q0 -420 311 -420z"/>
		<glyph unicode="&#x43f;" d="M342 0h-182v1098h909v-1098h-182v944h-545v-944z"/>
		<glyph unicode="&#x440;" d="M340 139h-12q12 -129 12 -162v-469h-182v1590h147l27 -148h8q110 168 322 168q201 0 315.5 -149.5t114.5 -417.5q0 -270 -115 -420.5t-315 -150.5q-207 0 -322 159zM340 592v-41q0 -227 69.5 -323.5t221.5 -96.5q272 0 272 422q0 414 -274 414q-152 0 -218.5 -88 t-70.5 -287z"/>
		<glyph unicode="&#x441;" d="M1061 1059l-62 -158q-150 57 -268 57q-371 0 -371 -413q0 -406 361 -406q157 0 321 62v-160q-134 -61 -329 -61q-257 0 -399 145.5t-142 417.5q0 281 145 428t408 147q178 0 336 -59z"/>
		<glyph unicode="&#x442;" d="M1106 944h-401v-944h-183v944h-401v154h985v-154z"/>
		<glyph unicode="&#x443;" d="M82 1098h188l262 -654q82 -205 89 -290h6q23 112 90 292l239 652h189l-475 -1241q-67 -174 -156 -261.5t-246 -87.5q-86 0 -168 17v145q62 -12 136 -12q96 0 149.5 41t95.5 141l58 150z"/>
		<glyph unicode="&#x444;" d="M694 1114q459 -50 459 -563q0 -525 -459 -567v-476h-157v476q-463 45 -463 567t463 563v442h157v-442zM537 135v828q-295 -29 -295 -412q0 -386 295 -416zM694 961v-826q291 33 291 416q0 377 -291 410z"/>
		<glyph unicode="&#x445;" d="M510 563l-393 535h207l290 -410l291 410h207l-395 -535l413 -563h-206l-310 436l-311 -436h-207z"/>
		<glyph unicode="&#x446;" d="M1180 -381h-183v381h-845v1098h182v-944h504v944h182v-944h160v-535z"/>
		<glyph unicode="&#x447;" d="M334 1098v-410q0 -174 205 -174q171 0 340 115v469h182v-1098h-182v489q-181 -127 -381 -127q-160 0 -253 87.5t-93 226.5v422h182z"/>
		<glyph unicode="&#x448;" d="M696 154h248v944h162v-1098h-981v1098h162v-944h248v944h161v-944z"/>
		<glyph unicode="&#x449;" d="M680 154h248v944h162v-944h118v-535h-161v381h-938v1098h161v-944h248v944h162v-944z"/>
		<glyph unicode="&#x44a;" d="M586 647h153q416 0 416 -311q0 -336 -420 -336h-332v944h-360v154h543v-451zM586 494v-344h137q254 0 254 172q0 90 -59 131t-199 41h-133z"/>
		<glyph unicode="&#x44b;" d="M274 647h134q415 0 415 -311q0 -336 -420 -336h-290v1098h161v-451zM274 494v-344h138q254 0 254 172q0 90 -59 131t-199 41h-134zM1114 0h-162v1098h162v-1098z"/>
		<glyph unicode="&#x44c;" d="M399 647h277q416 0 416 -311q0 -336 -420 -336h-455v1098h182v-451zM399 494v-344h260q254 0 254 172q0 90 -59 131t-199 41h-256z"/>
		<glyph unicode="&#x44d;" d="M190 41v160q163 -62 316 -62q351 0 368 348h-538v154h536q-27 317 -364 317q-108 0 -262 -57l-62 158q153 59 332 59q267 0 406 -146t139 -429q0 -271 -143 -417t-408 -146q-187 0 -320 61z"/>
		<glyph unicode="&#x44e;" d="M434 489h-149v-489h-162v1098h162v-455h151q35 475 367 475q171 0 266.5 -148t95.5 -419q0 -571 -368 -571q-335 0 -363 509zM801 131q103 0 149.5 97.5t46.5 322.5q0 218 -46 317t-152 99q-104 0 -150.5 -96t-46.5 -320q0 -221 46.5 -320.5t152.5 -99.5z"/>
		<glyph unicode="&#x44f;" d="M313 0h-198l291 461q-234 67 -234 315q0 150 102 236t275 86h485v-1098h-182v432h-285zM852 586v358h-295q-211 0 -211 -172q0 -186 238 -186h268z"/>
		<glyph unicode="&#x451;" d="M1096 514h-774q8 -375 344 -375q195 0 370 76v-160q-166 -75 -364 -75q-245 0 -392 149.5t-147 411.5q0 266 135.5 421.5t362.5 155.5q212 0 338.5 -134t126.5 -357v-113zM326 662h573q0 305 -272 305q-275 0 -301 -305zM444 1497q96 0 96 -102q0 -103 -96 -103t-96 103 q0 102 96 102zM819 1497q96 0 96 -102q0 -103 -96 -103t-96 103q0 102 96 102z"/>
		<glyph unicode="&#x452;" d="M645 -467v148q54 -21 115 -21q127 0 127 170v836q0 260 -236 260q-162 0 -235.5 -93.5t-73.5 -304.5v-528h-182v1237h-156v137h156v182h182v-182h379v-137h-379v-184l-8 -144h10q106 168 334 168q391 0 391 -401v-834q0 -334 -291 -334q-81 0 -133 25z"/>
		<glyph unicode="&#x453;" d="M1038 944h-565v-944h-182v1098h747v-154zM522 1268q94 133 174 301h219v-21q-112 -173 -272 -307h-121v27z"/>
		<glyph unicode="&#x454;" d="M1061 1059l-62 -158q-150 57 -262 57q-347 0 -377 -317h537v-154h-539q20 -348 369 -348q153 0 315 62v-160q-133 -61 -319 -61q-265 0 -408 146t-143 417q0 283 145.5 429t413.5 146q178 0 330 -59z"/>
		<glyph unicode="&#x455;" d="M203 49v166q193 -86 370 -86q275 0 275 162q0 57 -49 99t-226 106q-233 87 -293.5 159.5t-60.5 171.5q0 136 111.5 213.5t308.5 77.5q198 0 369 -74l-60 -149q-182 72 -319 72q-236 0 -236 -133q0 -61 50.5 -97.5t232.5 -101.5q211 -77 280.5 -151.5t69.5 -182.5 q0 -150 -117 -235.5t-331 -85.5q-248 0 -375 69z"/>
		<glyph unicode="&#x456;" d="M541 954l-269 21v123h451v-955l352 -20v-123h-878v123l344 20v811zM633 1550q106 0 106 -114q0 -58 -31.5 -86.5t-74.5 -28.5q-107 0 -107 115q0 114 107 114z"/>
		<glyph unicode="&#x457;" d="M541 954l-269 21v123h451v-955l352 -20v-123h-878v123l344 20v811zM426 1497q96 0 96 -102q0 -103 -96 -103t-96 103q0 102 96 102zM801 1497q96 0 96 -102q0 -103 -96 -103t-96 103q0 102 96 102z"/>
		<glyph unicode="&#x458;" d="M135 -457v154q134 -39 289 -39q117 0 182.5 57t65.5 158v1081l-420 21v123h602v-1215q0 -180 -113 -277.5t-319 -97.5q-164 0 -287 35zM743 1550q107 0 107 -114q0 -115 -107 -115q-106 0 -106 115q0 114 106 114z"/>
		<glyph unicode="&#x459;" d="M713 647h51q416 0 416 -311q0 -336 -420 -336h-209v944h-186q-33 -474 -59 -662.5t-72 -242t-142 -53.5q-62 0 -92 12v131q22 -6 49 -6q41 0 65.5 42t47 233t57.5 700h494v-451zM713 494v-344h55q254 0 254 172q0 90 -59 131t-199 41h-51z"/>
		<glyph unicode="&#x45a;" d="M268 1098v-455h299v455h162v-451h51q416 0 416 -311q0 -336 -420 -336h-209v489h-299v-489h-162v1098h162zM729 494v-344h55q254 0 254 172q0 90 -59 131t-199 41h-51z"/>
		<glyph unicode="&#x45b;" d="M887 0v666q0 260 -236 260q-162 0 -235.5 -93.5t-73.5 -304.5v-528h-182v1237h-156v137h156v182h184v-182h418v-137h-420v-184l-10 -144h10q108 168 346 168q192 0 286.5 -95.5t94.5 -305.5v-676h-182z"/>
		<glyph unicode="&#x45c;" d="M383 508l137 166l402 424h213l-494 -510l522 -588h-213l-426 469l-129 -82v-387h-180v1098h180v-291l-16 -299h4zM508 1268q94 133 174 301h219v-21q-112 -173 -272 -307h-121v27z"/>
		<glyph unicode="&#x45e;" d="M82 1098h188l262 -654q82 -205 89 -290h6q23 112 90 292l239 652h189l-475 -1241q-67 -174 -156 -261.5t-246 -87.5q-86 0 -168 17v145q62 -12 136 -12q96 0 149.5 41t95.5 141l58 150zM1007 1559q-20 -318 -389 -318q-195 0 -281 74t-96 244h170q8 -102 50 -144.5 t161 -42.5q194 0 211 187h174z"/>
		<glyph unicode="&#x45f;" d="M342 154h545v944h182v-1098h-354v-381h-183v381h-372v1098h182v-944z"/>
		<glyph unicode="&#x490;" d="M870 1462v301h177v-467h-627v-1296h-187v1462h637z"/>
		<glyph unicode="&#x491;" d="M1018 961h-545v-961h-182v1098h545v319h182v-456z"/>
		<glyph unicode="&#x1e00;" d="M1004 0l-144 453h-491l-146 -453h-190l483 1468h195l485 -1468h-192zM807 618l-133 424q-39 124 -62 226q-20 -99 -46 -183l-144 -467h385zM842 -338q0 -51 -17.5 -91.5t-48.5 -68.5t-73 -42.5t-91 -14.5q-50 0 -91 14.5t-70.5 42.5t-45.5 67.5t-16 90.5t16 90.5 t45.5 67.5t70.5 42.5t91 14.5q48 0 90 -14.5t73 -42t49 -67t18 -89.5zM725 -340q0 53 -31.5 83t-81.5 30q-49 0 -80.5 -30t-31.5 -83t28.5 -83t83.5 -30q50 0 81.5 30t31.5 83z"/>
		<glyph unicode="&#x1e01;" d="M895 0l-37 152h-8q-77 -97 -158 -134.5t-209 -37.5q-163 0 -255.5 86t-92.5 241q0 332 510 348l203 7v69q0 236 -244 236q-147 0 -328 -82l-63 137q196 96 383 96q227 0 328.5 -87t101.5 -279v-752h-131zM846 537l-162 -7q-196 -8 -278 -61.5t-82 -163.5q0 -178 200 -178 q147 0 234.5 81.5t87.5 229.5v99zM835 -338q0 -51 -17.5 -91.5t-48.5 -68.5t-73 -42.5t-91 -14.5q-50 0 -91 14.5t-70.5 42.5t-45.5 67.5t-16 90.5t16 90.5t45.5 67.5t70.5 42.5t91 14.5q48 0 90 -14.5t73 -42t49 -67t18 -89.5zM718 -340q0 53 -31.5 83t-81.5 30 q-49 0 -80.5 -30t-31.5 -83t28.5 -83t83.5 -30q50 0 81.5 30t31.5 83z"/>
		<glyph unicode="&#x1e3e;" d="M532 0l-278 1280h-8q18 -266 18 -406v-874h-151v1462h247l248 -1192h6l250 1192h252v-1462h-153v887q0 102 14 391h-8l-283 -1278h-154zM518 1608q94 133 174 301h219v-21q-112 -173 -272 -307h-121v27z"/>
		<glyph unicode="&#x1e3f;" d="M977 0v707q0 146 -26.5 203t-88.5 57q-87 0 -126.5 -83t-39.5 -278v-606h-161v707q0 260 -125 260q-84 0 -120 -79.5t-36 -318.5v-569h-162v1098h127l27 -148h10q67 168 201 168q163 0 213 -182h6q76 182 219 182q128 0 186 -92.5t58 -308.5v-717h-162zM545 1268 q94 133 174 301h219v-21q-112 -173 -272 -307h-121v27z"/>
		<glyph unicode="&#x1e80;" d="M528 1008h177l145 -521q61 -219 72 -307q2 53 65 619l70 663h170l-187 -1462h-190l-168 580q-40 138 -66 282q-32 -173 -65 -284l-156 -578h-190l-203 1462h170l88 -663q23 -176 40 -378t17 -241q24 151 70 312zM730 1579h-121q-166 142 -272 307v21h219 q86 -178 174 -301v-27z"/>
		<glyph unicode="&#x1e81;" d="M813 0l-131 596l-68 330h-6l-65 -334l-135 -592h-189l-223 1098h162l98 -543q34 -186 57 -393h6q31 185 68 358l133 578h193l127 -578q43 -195 67 -358h6q31 242 60 393l102 543h158l-225 -1098h-195zM697 1241h-121q-166 142 -272 307v21h219q86 -178 174 -301v-27z"/>
		<glyph unicode="&#x1e82;" d="M528 1008h177l145 -521q61 -219 72 -307q2 53 65 619l70 663h170l-187 -1462h-190l-168 580q-40 138 -66 282q-32 -173 -65 -284l-156 -578h-190l-203 1462h170l88 -663q23 -176 40 -378t17 -241q24 151 70 312zM500 1606q94 133 174 301h219v-21q-112 -173 -272 -307 h-121v27z"/>
		<glyph unicode="&#x1e83;" d="M813 0l-131 596l-68 330h-6l-65 -334l-135 -592h-189l-223 1098h162l98 -543q34 -186 57 -393h6q31 185 68 358l133 578h193l127 -578q43 -195 67 -358h6q31 242 60 393l102 543h158l-225 -1098h-195zM522 1268q94 133 174 301h219v-21q-112 -173 -272 -307h-121v27z"/>
		<glyph unicode="&#x1e84;" d="M528 1008h177l145 -521q61 -219 72 -307q2 53 65 619l70 663h170l-187 -1462h-190l-168 580q-40 138 -66 282q-32 -173 -65 -284l-156 -578h-190l-203 1462h170l88 -663q23 -176 40 -378t17 -241q24 151 70 312zM430 1835q96 0 96 -102q0 -103 -96 -103t-96 103 q0 102 96 102zM805 1835q96 0 96 -102q0 -103 -96 -103t-96 103q0 102 96 102z"/>
		<glyph unicode="&#x1e85;" d="M813 0l-131 596l-68 330h-6l-65 -334l-135 -592h-189l-223 1098h162l98 -543q34 -186 57 -393h6q31 185 68 358l133 578h193l127 -578q43 -195 67 -358h6q31 242 60 393l102 543h158l-225 -1098h-195zM425 1497q96 0 96 -102q0 -103 -96 -103t-96 103q0 102 96 102z M800 1497q96 0 96 -102q0 -103 -96 -103t-96 103q0 102 96 102z"/>
		<glyph unicode="&#x1ef2;" d="M612 723l381 739h201l-487 -893v-569h-187v559l-487 903h203zM697 1579h-121q-166 142 -272 307v21h219q86 -178 174 -301v-27z"/>
		<glyph unicode="&#x1ef3;" d="M82 1098h188l262 -654q82 -205 89 -290h6q23 112 90 292l239 652h189l-475 -1241q-67 -174 -156 -261.5t-246 -87.5q-86 0 -168 17v145q62 -12 136 -12q96 0 149.5 41t95.5 141l58 150zM706 1241h-121q-166 142 -272 307v21h219q86 -178 174 -301v-27z"/>
		<glyph unicode="&#x1f4d;" d="M761 -20q-532 0 -532 755q0 750 534 750q256 0 392.5 -195.5t136.5 -556.5t-138 -557t-393 -196zM761 143q173 0 253.5 145t80.5 445q0 303 -81.5 445.5t-250.5 142.5q-337 0 -337 -588q0 -590 335 -590zM-312 1255q0 78 60 135.5t182 88.5v-76q-60 -22 -88.5 -45 t-28.5 -47q0 -19 15.5 -28t33.5 -17t33.5 -21t15.5 -41q0 -37 -25 -56.5t-71 -19.5q-59 0 -93 35t-34 92zM-3 1161l24 67l24 78q12 39 23 79.5t19 76.5h207v-20q-18 -32 -42 -70.5t-52 -78.5l-59 -81l-62 -77h-82v26z"/>
		<glyph unicode="&#x2000;"/>
		<glyph unicode="&#x2001;"/>
		<glyph unicode="&#x2002;"/>
		<glyph unicode="&#x2003;"/>
		<glyph unicode="&#x2004;"/>
		<glyph unicode="&#x2005;"/>
		<glyph unicode="&#x2006;"/>
		<glyph unicode="&#x2007;"/>
		<glyph unicode="&#x2008;"/>
		<glyph unicode="&#x2009;"/>
		<glyph unicode="&#x200a;"/>
		<glyph unicode="&#x200b;"/>
		<glyph unicode="&#x2010;" d="M285 465v168h659v-168h-659z"/>
		<glyph unicode="&#x2011;" d="M285 465v168h659v-168h-659z"/>
		<glyph unicode="&#x2013;" d="M184 465v168h860v-168h-860z"/>
		<glyph unicode="&#x2014;" d="M-6 465v168h1241v-168h-1241z"/>
		<glyph unicode="&#x2015;" d="M-6 465v168h1241v-168h-1241z"/>
		<glyph unicode="&#x2017;" d="M1249 -184h-1269v139h1269v-139zM1249 -463h-1269v139h1269v-139z"/>
		<glyph unicode="&#x2018;" d="M461 961l-15 22q54 206 177 479h157q-62 -255 -100 -501h-219z"/>
		<glyph unicode="&#x2019;" d="M766 1462l14 -22q-55 -213 -176 -479h-158q65 266 101 501h219z"/>
		<glyph unicode="&#x201a;" d="M756 238l14 -23q-55 -213 -176 -479h-137q71 292 100 502h199z"/>
		<glyph unicode="&#x201b;" d="M680 1462q40 -259 100 -501h-157q-124 274 -177 479l15 22h219z"/>
		<glyph unicode="&#x201c;" d="M248 961l-15 22q54 206 177 479h157q-62 -255 -100 -501h-219zM674 961l-15 22q54 206 177 479h157q-62 -255 -100 -501h-219z"/>
		<glyph unicode="&#x201d;" d="M979 1462l14 -22q-55 -213 -176 -479h-158q65 266 101 501h219zM553 1462l14 -22q-55 -213 -176 -479h-158q65 266 101 501h219z"/>
		<glyph unicode="&#x201e;" d="M543 238l14 -23q-55 -213 -176 -479h-137q71 292 100 502h199zM969 238l14 -23q-51 -197 -176 -479h-137q71 292 100 502h199z"/>
		<glyph unicode="&#x2020;" d="M989 989l-332 31l56 -1020h-217l55 1020l-311 -31v180l311 -30l-55 417h217l-56 -417l332 30v-180z"/>
		<glyph unicode="&#x2021;" d="M668 496l331 30v-180l-331 31l55 -377h-217l55 377l-332 -31v180l332 -30l-47 290l47 275l-332 -31v180l332 -30l-55 376h217l-55 -376l331 30v-180l-331 31l47 -275z"/>
		<glyph unicode="&#x2022;" d="M614 1010q236 0 236 -262q0 -128 -63.5 -195.5t-172.5 -67.5q-111 0 -173 67t-62 196q0 262 235 262z"/>
		<glyph unicode="&#x2026;" d="M205 250q127 0 127 -139q0 -140 -127 -140t-127 140q0 139 127 139zM614 250q127 0 127 -139q0 -140 -127 -140t-127 140q0 139 127 139zM1024 250q127 0 127 -139q0 -140 -127 -140t-127 140q0 139 127 139z"/>
		<glyph unicode="&#x202f;" horiz-adv-x="432"/>
		<glyph unicode="&#x2030;" d="M260 860q-114 0 -177 81.5t-63 229.5q0 310 244 310q113 0 176.5 -80.5t63.5 -229.5q0 -311 -244 -311zM262 967q63 0 84 50t21 154q0 116 -23.5 158.5t-81.5 42.5q-59 0 -82.5 -44.5t-23.5 -156.5q0 -104 21.5 -154t84.5 -50zM743 844l-698 -287l-41 98l698 289zM434 0 q-114 0 -176.5 81.5t-62.5 229.5q0 310 243 310q113 0 176.5 -80.5t63.5 -229.5q0 -311 -244 -311zM436 106q63 0 84 50.5t21 154.5q0 116 -23.5 158.5t-81.5 42.5q-59 0 -82.5 -44.5t-23.5 -156.5q0 -104 21.5 -154.5t84.5 -50.5zM965 0q-115 0 -177.5 81.5t-62.5 229.5 q0 310 244 310q112 0 175.5 -81t63.5 -229q0 -311 -243 -311zM967 106q63 0 83.5 50.5t20.5 154.5q0 114 -22 157.5t-82 43.5t-83.5 -44t-23.5 -157q0 -104 22 -154.5t85 -50.5z"/>
		<glyph unicode="&#x2032;" d="M733 1462l-41 -528h-155l-41 528h237z"/>
		<glyph unicode="&#x2033;" d="M944 1462l-41 -528h-155l-41 528h237zM522 1462l-41 -528h-155l-41 528h237z"/>
		<glyph unicode="&#x2039;" d="M401 553l310 414l116 -78l-237 -348l237 -348l-116 -78l-310 411v27z"/>
		<glyph unicode="&#x203a;" d="M827 526l-309 -411l-117 78l238 348l-238 348l117 78l309 -414v-27z"/>
		<glyph unicode="&#x203c;" d="M907 414h-121l-51 1048h223zM845 250q127 0 127 -139q0 -140 -127 -140t-127 140q0 139 127 139zM444 414h-121l-51 1048h223zM382 250q127 0 127 -139q0 -140 -127 -140t-127 140q0 139 127 139z"/>
		<glyph unicode="&#x2044;" d="M1057 1462l-729 -1462h-158l729 1462h158z"/>
		<glyph unicode="&#x205f;" horiz-adv-x="540"/>
		<glyph unicode="&#x207f;" d="M764 797v413q0 150 -127 150q-100 0 -136 -53t-36 -172v-338h-148v665h125l17 -104h8q68 121 207 121q110 0 173.5 -65t63.5 -185v-432h-147z"/>
		<glyph unicode="&#x20a3;" d="M483 399h293v-137h-293v-262h-178v262h-176v137h176v1063h752v-164h-574v-516h535v-164h-535v-219z"/>
		<glyph unicode="&#x20a4;" d="M1063 1401l-66 -144q-141 72 -272 72q-223 0 -223 -246v-192h377v-137h-377v-158h377v-137h-377v-19q0 -196 -140 -274h748v-166h-991v154q200 49 200 284v21h-198v137h198v158h-198v137h198v221q0 168 108.5 268.5t289.5 100.5q192 0 346 -80z"/>
		<glyph unicode="&#x20a7;" d="M240 569v-569h-158v1462h205q450 0 450 -428q0 -221 -115 -343t-341 -122h-41zM240 715h41q292 0 292 309q0 291 -268 291h-65v-600zM1190 137v-125q-64 -32 -166 -32q-221 0 -221 282v356h-115v70l115 51l65 215h86v-211h209v-125h-209v-348q0 -153 113 -153 q62 0 123 20z"/>
		<glyph unicode="&#x20ac;" d="M442 934h432v-137h-446q0 -15 -1 -29l-1 -25v-62q0 -20 2 -42h385v-137h-367q73 -359 369 -359q136 0 268 58v-162q-122 -59 -282 -59q-447 0 -541 522h-164v137h148l-2 38l2 120h-148v137h160q39 262 179.5 405.5t359.5 143.5q191 0 335 -92l-79 -146q-122 74 -242 74 q-136 0 -233 -99.5t-134 -285.5z"/>
		<glyph unicode="&#x2105;" d="M532 1436l-32 -107q-82 33 -150 33q-198 0 -198 -234q0 -229 194 -229q103 0 176 33v-107q-74 -37 -182 -37q-156 0 -244 87.5t-88 250.5q0 171 90 259t252 88q99 0 182 -37zM1042 1462l-729 -1462h-157l729 1462h157zM918 -8q-132 0 -217 92.5t-85 249.5q0 161 83 251.5 t223 90.5q131 0 216 -93.5t85 -248.5q0 -158 -82 -250t-223 -92zM920 100q155 0 155 234q0 231 -155 231q-158 0 -158 -231q0 -234 158 -234z"/>
		<glyph unicode="&#x2113;" d="M885 332h114q-18 -352 -286 -352q-139 0 -216 91.5t-77 264.5v231q-86 -31 -193 -57v121q72 19 193 59v494q0 140 68.5 219.5t201.5 79.5q110 0 173 -82.5t63 -218.5q0 -355 -340 -541v-301q0 -221 145 -221q144 0 154 213zM586 770q207 121 207 406q0 188 -103 188 q-53 0 -78.5 -40.5t-25.5 -147.5v-406z"/>
		<glyph unicode="&#x2116;" d="M649 0h-174l-325 1169h-9q19 -253 19 -417v-752h-135v1462h176l323 -1163h6q-14 303 -14 403v760h133v-1462zM954 274q-114 0 -181.5 93.5t-67.5 255.5q0 346 253 346q114 0 182 -91.5t68 -254.5q0 -168 -66 -258.5t-188 -90.5zM956 395q63 0 87 57.5t24 170.5 q0 114 -24 168.5t-87 54.5q-64 0 -88 -55t-24 -168q0 -112 24 -170t88 -58zM745 0v147h414v-147h-414z"/>
		<glyph unicode="&#x2122;" d="M303 741h-127v613h-176v108h481v-108h-178v-613zM797 741l-146 549h-12l10 -180v-369h-123v721h187l139 -534l149 534h179v-721h-127v342q0 87 10 207h-12l-154 -549h-100z"/>
		<glyph unicode="&#x2126;" d="M541 147v-147h-467v164h266q-254 235 -254 661q0 312 140 486t390 174t390.5 -174t140.5 -486q0 -429 -256 -661h268v-164h-469v147q260 231 260 674q0 500 -336 500q-335 0 -335 -500q0 -443 262 -674z"/>
		<glyph unicode="&#x212e;" d="M1143 530h-828v-356q123 -123 297 -123q254 0 396 234l71 -41q-97 -156 -206.5 -217.5t-260.5 -61.5q-240 0 -385 162t-145 403q0 261 153.5 413.5t376.5 152.5q231 0 381 -155t150 -406v-5zM911 616v277q-121 119 -301 119q-171 0 -295 -117v-279h596z"/>
		<glyph unicode="&#x215b;" d="M237 1460h135v-788h-146v465q0 69 9 200q-41 -44 -74 -65l-70 -51l-73 88zM1001 1462l-729 -1462h-158l729 1462h158zM1040 425q166 -85 166 -207q0 -103 -76 -165.5t-200 -62.5q-136 0 -209.5 59t-73.5 163q0 130 139 204q-114 79 -114 193q0 91 72 146t184 55 q111 0 181.5 -54t70.5 -147q0 -116 -140 -184zM928 474q106 49 106 133q0 96 -108 96q-107 0 -107 -96q0 -81 109 -133zM911 365q-118 -63 -118 -153q0 -117 131 -117q135 0 135 117q0 89 -135 147z"/>
		<glyph unicode="&#x215c;" d="M339 1085q176 -39 176 -186q0 -116 -74.5 -180t-214.5 -64q-131 0 -215 50v124q110 -65 203 -65q149 0 149 137q0 125 -147 125h-72v104h70q123 0 123 127q0 111 -97 111q-71 0 -161 -70l-66 86q111 93 238 93q109 0 173 -54.5t64 -148.5q0 -139 -149 -189zM1040 1462 l-729 -1462h-158l729 1462h158zM1060 425q166 -85 166 -207q0 -103 -76 -165.5t-200 -62.5q-136 0 -209.5 59t-73.5 163q0 130 139 204q-114 79 -114 193q0 91 72 146t184 55q111 0 181.5 -54t70.5 -147q0 -116 -140 -184zM948 474q106 49 106 133q0 96 -108 96 q-107 0 -107 -96q0 -81 109 -133zM931 365q-118 -63 -118 -153q0 -117 131 -117q135 0 135 117q0 89 -135 147z"/>
		<glyph unicode="&#x215d;" d="M24 705v129q102 -68 207 -68q162 0 162 147q0 146 -166 146q-52 0 -125 -17l-62 39l31 381h397v-110h-288l-17 -193q35 6 96 6q118 0 191.5 -65t73.5 -174q0 -127 -75 -198t-220 -71q-124 0 -205 48zM1040 1462l-729 -1462h-158l729 1462h158zM1060 425q166 -85 166 -207 q0 -103 -76 -165.5t-200 -62.5q-136 0 -209.5 59t-73.5 163q0 130 139 204q-114 79 -114 193q0 91 72 146t184 55q111 0 181.5 -54t70.5 -147q0 -116 -140 -184zM948 474q106 49 106 133q0 96 -108 96q-107 0 -107 -96q0 -81 109 -133zM931 365q-118 -63 -118 -153 q0 -117 131 -117q135 0 135 117q0 89 -135 147z"/>
		<glyph unicode="&#x215e;" d="M112 672l309 669h-393v121h548v-100l-309 -690h-155zM976 1462l-729 -1462h-158l729 1462h158zM1060 425q166 -85 166 -207q0 -103 -76 -165.5t-200 -62.5q-136 0 -209.5 59t-73.5 163q0 130 139 204q-114 79 -114 193q0 91 72 146t184 55q111 0 181.5 -54t70.5 -147 q0 -116 -140 -184zM948 474q106 49 106 133q0 96 -108 96q-107 0 -107 -96q0 -81 109 -133zM931 365q-118 -63 -118 -153q0 -117 131 -117q135 0 135 117q0 89 -135 147z"/>
		<glyph unicode="&#x2202;" d="M924 862l2 40q9 181 -57.5 302t-219.5 121q-131 0 -258 -84v174q134 62 283 62q432 0 432 -543q0 -389 -168.5 -671.5t-454.5 -282.5q-362 0 -362 395q0 249 138 442t382 193q184 0 283 -148zM891 680q-22 85 -85.5 137.5t-139.5 52.5q-160 0 -258.5 -160t-98.5 -341 q0 -236 187 -236q138 0 247.5 153t147.5 394z"/>
		<glyph unicode="&#x2206;" d="M74 113l446 1349h187l448 -1351v-111h-1081v113zM705 922q-59 182 -93 340q-45 -200 -88 -334l-250 -764h678z"/>
		<glyph unicode="&#x220f;" d="M926 -492v1788h-584v-1788h-186v1954h956v-1954h-186z"/>
		<glyph unicode="&#x2211;" d="M74 -492v115l583 914l-567 811v114h1014v-164h-754l529 -759l-555 -867h845v-164h-1095z"/>
		<glyph unicode="&#x2212;" d="M152 647v150h923v-150h-923z"/>
		<glyph unicode="&#x221a;" d="M612 -14h-133l-276 778h-180v143h296l230 -663l512 1452h145z"/>
		<glyph unicode="&#x221e;" d="M610 621q-118 -213 -272 -213q-119 0 -193.5 87t-74.5 228q0 134 74.5 224.5t193.5 90.5q166 0 274 -219q116 213 281 213q118 0 191 -86t73 -229q0 -131 -75.5 -223.5t-188.5 -92.5q-171 0 -283 220zM541 723q-82 184 -191 184q-65 0 -105 -53.5t-40 -132.5 q0 -81 40 -131.5t107 -50.5q104 0 189 184zM684 717q86 -185 193 -185q65 0 105 54.5t40 132.5q0 79 -42 130.5t-106 51.5q-103 0 -190 -184z"/>
		<glyph unicode="&#x222b;" d="M993 1538v-147q-56 26 -114 26q-172 0 -172 -233v-1321q0 -174 -89 -264.5t-249 -90.5q-78 0 -133 19v147q60 -24 116 -24q180 0 180 233v1319q0 354 330 354q88 0 131 -18z"/>
		<glyph unicode="&#x2248;" d="M152 379v162q99 108 247 108q100 0 248 -63q130 -56 201 -56q108 0 227 121v-162q-99 -108 -248 -108q-100 0 -247 63q-131 56 -201 56q-108 0 -227 -121zM152 788v162q98 109 247 109q98 0 248 -64q127 -55 201 -55q109 0 227 121v-162q-97 -108 -248 -108 q-100 0 -247 63q-128 55 -201 55q-112 0 -227 -121z"/>
		<glyph unicode="&#x2260;" d="M399 442h-247v150h317l121 260h-438v149h507l134 283l137 -59l-105 -224h250v-149h-319l-123 -260h442v-150h-512l-129 -278l-137 57z"/>
		<glyph unicode="&#x2264;" d="M152 0v150h923v-150h-923zM1075 221l-923 451v102l923 451v-160l-715 -342l715 -342v-160z"/>
		<glyph unicode="&#x2265;" d="M152 0v150h923v-150h-923zM152 381l714 342l-714 342v160l923 -451v-102l-923 -451v160z"/>
		<glyph unicode="&#x25ca;" d="M1104 737l-453 -737h-76l-450 735l450 740h76zM920 737l-306 512l-305 -512l305 -514z"/>
		<glyph unicode="&#xfb01;" d="M672 961h-246v-961h-182v961h-195v75l195 68v96q0 190 76.5 278.5t254.5 88.5q97 0 197 -37l-47 -141q-79 28 -143 28q-92 0 -124 -50.5t-32 -164.5v-104h246v-137zM961 1509q106 0 106 -114q0 -58 -31.5 -86.5t-74.5 -28.5q-107 0 -107 115q0 114 107 114zM1051 0h-183 v1098h183v-1098z"/>
		<glyph unicode="&#xfb02;" d="M672 961h-246v-961h-182v961h-195v75l195 68v96q0 190 76.5 278.5t254.5 88.5q97 0 197 -37l-47 -141q-79 28 -143 28q-92 0 -124 -50.5t-32 -164.5v-104h246v-137zM1051 0h-183v1556h183v-1556z"/>
		<glyph unicode="&#xfb03;" d="M1065 0h-164v971h-203v-971h-163v971h-205v-971h-164v971h-100v65l100 62v82q0 106 20 176.5t58.5 112.5t94.5 59.5t128 17.5q49 0 92.5 -11t77.5 -24q38 29 89 42.5t114 13.5q52 0 97.5 -11.5t82.5 -25.5l-41 -131q-29 11 -63.5 19.5t-71.5 8.5q-38 0 -65.5 -11 t-45.5 -37t-26.5 -69.5t-8.5 -107.5v-104h367v-1098zM330 1098h205v102q0 115 24 193q-20 6 -42.5 10t-45.5 4q-35 0 -61.5 -11t-44 -37t-26.5 -69.5t-9 -107.5v-84z"/>
		<glyph unicode="&#xfb04;" d="M840 971h-142v-971h-163v971h-205v-971h-164v971h-100v65l100 62v82q0 106 20 176.5t58.5 112.5t94.5 59.5t128 17.5q49 0 92.5 -11t77.5 -24q38 29 89 42.5t114 13.5q48 0 94 -11h131v-1556h-164v1421q-14 3 -28.5 4.5t-28.5 1.5q-38 0 -65.5 -11t-45.5 -37t-26.5 -69.5 t-8.5 -107.5v-104h142v-127zM330 1098h205v102q0 115 24 193q-20 6 -42.5 10t-45.5 4q-35 0 -61.5 -11t-44 -37t-26.5 -69.5t-9 -107.5v-84z"/>
		<glyph unicode="&#xfeff;"/>
		<glyph unicode="&#xfffc;" d="M659.5 985q-12.5 -44 -38.5 -76t-65 -49.5t-93 -17.5t-93.5 17.5t-65 49.5t-38 76t-12.5 98q0 55 12.5 99.5t38 76t65 49t93.5 17.5t93 -17.5t65 -49t38.5 -76t12.5 -99.5q0 -54 -12.5 -98zM535 795h137q88 0 132 -26.5t44 -92.5q0 -40 -18.5 -67t-53.5 -34v-4 q18 -3 33.5 -10t27 -19.5t18.5 -31.5t7 -47q0 -65 -43.5 -101t-118.5 -36h-165v469zM758 274h266v-77h-72v-242q0 -80 -44 -118t-113 -38q-31 0 -52.5 2.5t-33.5 5.5v82q12 -2 31.5 -4t43.5 -2q29 0 48.5 14.5t19.5 55.5v244h-94v77zM380.5 967.5q26.5 -41.5 82.5 -41.5 q57 0 82.5 41.5t25.5 115.5q0 75 -25.5 116.5t-82.5 41.5q-56 0 -82.5 -41.5t-26.5 -116.5q0 -74 26.5 -115.5zM55 1214v304h303v-111h-192v-193h-111zM55 -383v303h111v-194h192v-109h-303zM870 1407v111h304v-304h-109v193h-195zM870 -383v109h195v194h109v-303h-304z M166 430h-111v272h111v-272zM479 1407v111h271v-111h-271zM166 39h-111v270h111v-270zM166 823h-111v271h111v-271zM1174 430h-109v272h109v-272zM1174 39h-109v270h109v-270zM1174 823h-109v271h109v-271zM479 -383v109h271v-109h-271zM633 530v-122h59q38 0 53 17t15 48 q0 25 -15 41t-57 16h-55zM633 610h51q37 0 51.5 13.5t14.5 38.5q0 27 -16.5 39t-53.5 12h-47v-103z"/>
		<glyph unicode="&#xfffd;" d="M614 1556l613 -938l-613 -937l-610 937zM668 385v43q0 23 3.5 40t13.5 33.5t27.5 33.5t45.5 40q35 33 61.5 61.5t44 59.5t26.5 66.5t9 81.5q0 124 -76 192t-211 68q-35 0 -71 -7t-71 -19.5t-67.5 -29t-60.5 -34.5l66 -160q55 31 106 51.5t96 20.5q53 0 78 -26.5t25 -68.5 q0 -26 -5.5 -46t-17.5 -38t-31 -36.5t-47 -42.5q-31 -28 -52.5 -53.5t-35 -52.5t-20 -56.5t-6.5 -65.5v-55h170zM477 139q0 -65 32.5 -94t82.5 -29q21 0 41.5 7t36.5 22t25.5 38.5t9.5 55.5q0 34 -9.5 57.5t-25.5 38t-36.5 21t-41.5 6.5q-50 0 -82.5 -28t-32.5 -95z"/>
		<glyph d="M997 1559q-20 -318 -389 -318q-195 0 -281 74t-96 244h170q8 -102 50 -144.5t161 -42.5q194 0 211 187h174z"/>
		<glyph d="M135 -457v154q134 -39 289 -39q117 0 182.5 57t65.5 158v1081l-420 21v123h602v-1215q0 -180 -113 -277.5t-319 -97.5q-164 0 -287 35z"/>
		<glyph d="M494 1255l26 107q26 116 35 194h180v-20q0 -14 -42 -113t-103 -194h-96v26z"/>
		<glyph d="M483 -426q62 140 84 301h178v-20q0 -22 -48 -124t-115 -184h-99v27z"/>
		<glyph d="M745 1542q-63 -153 -83 -301h-179v21q0 17 45.5 117.5t118.5 189.5h98v-27z"/>
		<glyph d="M612 569q-142 0 -220.5 117t-78.5 340q0 453 299 453q149 0 226 -118t77 -335q0 -457 -303 -457zM612 700q156 0 156 326q0 324 -156 324q-151 0 -151 -324q0 -326 151 -326z"/>
		<glyph d="M895 854h-84v-174h-143v174h-375v98l377 523h141v-508h84v-113zM668 967v176q0 82 6 172q-40 -73 -80 -131l-156 -217h230z"/>
		<glyph d="M336 705v129q102 -68 207 -68q162 0 162 147q0 146 -166 146q-52 0 -125 -17l-62 39l31 381h397v-110h-288l-17 -193q35 6 96 6q118 0 191.5 -65t73.5 -174q0 -127 -75 -198t-220 -71q-124 0 -205 48z"/>
		<glyph d="M797 1493l45 -109q-329 -110 -381 -325h10q61 92 201 92q112 0 177.5 -76.5t65.5 -204.5q0 -133 -82.5 -217t-216.5 -84q-135 0 -219 93.5t-84 250.5q0 407 484 580zM774 868q0 172 -147 172q-74 0 -123 -43.5t-49 -107.5q0 -86 46.5 -142.5t121.5 -56.5q68 0 109.5 46 t41.5 132z"/>
		<glyph d="M451 672l309 669h-393v121h548v-100l-309 -690h-155z"/>
		<glyph d="M698 1090q166 -85 166 -207q0 -103 -76 -165.5t-200 -62.5q-136 0 -209.5 59t-73.5 163q0 130 139 204q-114 79 -114 193q0 91 72 146t184 55q111 0 181.5 -54t70.5 -147q0 -116 -140 -184zM586 1139q106 49 106 133q0 96 -108 96q-107 0 -107 -96q0 -81 109 -133z M569 1030q-118 -63 -118 -153q0 -117 131 -117q135 0 135 117q0 89 -135 147z"/>
		<glyph d="M391 584v125q39 -23 101 -23q272 0 286 315h-8q-71 -98 -197 -98q-122 0 -191 74.5t-69 200.5q0 133 80 218t211 85q142 0 226.5 -102.5t84.5 -288.5q0 -521 -413 -521q-62 0 -111 15zM453 1180q0 -164 149 -164q73 0 121.5 43.5t48.5 99.5q0 80 -44.5 141.5t-121.5 61.5 q-68 0 -110.5 -47t-42.5 -135z"/>
		<glyph d="M901 147h-12q-108 -167 -314 -167q-194 0 -305.5 148.5t-111.5 418.5q0 272 112 421.5t305 149.5q203 0 314 -168h8l27 148h147v-1121q0 -224 -119.5 -346.5t-335.5 -122.5q-191 0 -352 76v170q183 -96 350 -96q275 0 275 309v10q0 41 12 170zM889 506v41 q0 227 -67 323.5t-214 96.5q-262 0 -262 -422q0 -414 264 -414q146 0 210.5 88t68.5 287z"/>
		<glyph d="M870 25l338 -373l-153 -109l-367 441q-30 -4 -72 -4q-308 0 -471 196.5t-163 558.5q0 363 164 556.5t472 193.5q298 0 464.5 -199.5t166.5 -552.5q0 -548 -379 -708zM616 143q437 0 437 590q0 588 -435 588q-440 0 -440 -588q0 -590 438 -590z"/>
		<glyph d="M881 0h-176v913q0 122 8 361q-39 -43 -121 -113l-148 -121l-96 123l383 299h150v-1462z"/>
		<glyph d="M881 0h-179v823l5 408q-117 -152 -361 -285v193q237 110 369 323h166v-1462z"/>
		<glyph d="M856 0h-176v909q0 102 8 183h-317v127l301 34l71 209h113v-1462z"/>
		<glyph d="M301 1255q0 78 60 135.5t182 88.5v-76q-60 -22 -88.5 -45t-28.5 -47q0 -19 15.5 -28t33.5 -17t33.5 -21t15.5 -41q0 -37 -25 -56.5t-71 -19.5q-59 0 -93 35t-34 92zM610 1161l24 67l24 78q12 39 23 79.5t19 76.5h207v-20q-18 -32 -42 -70.5t-52 -78.5l-59 -81l-62 -77 h-82v26z"/>
	</font>
</defs>
</svg>
